Поиск

1965 Clifford Jordan - These Are My Roots: Clifford Jordan Plays Leadbelly (2004) {Collectables COL-CD-6522} [CD]

1965 Clifford Jordan - These Are My Roots: Clifford Jordan Plays Leadbelly (2004) {Collectables COL-CD-6522} [CD]
Битрейт аудио:
lossless
Треклист:

01. Dick's Holler (Ledbetter-Lomax-Lomax) - 4:53
02. Silver City Bound (Ledbetter-Lomax) - 2:42
03. Take This Hammer (Ledbetter) - 4:19
04. Black Betty (Ledbetter) - 2:59
05. The Highest Mountain (Jordan) - 4:17
06. Goodnight Irene (Ledbetter-Lomax) - 4:29
07. De Gray Goose (Ledbetter-Lomax-Lomax) - 3:39
08. Black Girl (Ledbetter) - 4:23
09. Jolly O the Ransome (Ledbetter) - 2:22
10. Yellow Gal (Ledbetter-Lomax) - 4:28

Лог создания рипа
Exact Audio Copy V1.1 from 23. June 2015

EAC extraction logfile from 17. December 2018, 16:12

Clifford Jordan / These Are My Roots: Clifford Jordan Plays Leadbelly

Used drive  : HL-DT-STDVDRAM GP50NB40   Adapter: 1  ID: 0

Read mode               : Secure
Utilize accurate stream : Yes
Defeat audio cache      : Yes
Make use of C2 pointers : No

Read offset correction                      : 6
Overread into Lead-In and Lead-Out          : No
Fill up missing offset samples with silence : Yes
Delete leading and trailing silent blocks   : No
Null samples used in CRC calculations       : Yes
Used interface                              : Native Win32 interface for Win NT & 2000
Gap handling                                : Appended to previous track

Used output format              : User Defined Encoder
Selected bitrate                : 1024 kBit/s
Quality                         : High
Add ID3 tag                     : No
Command line compressor         : C:\Program Files (x86)\Exact Audio Copy\Flac\flac.exe
Additional command line options : -8 -e -p -V -T "ARTIST=%artist%" -T "TITLE=%title%" -T "ALBUM=%albumtitle%" -T "DATE=%year%" -T "TRACKNUMBER=%tracknr%" -T "GENRE=%genre%" -T "PERFORMER=%albuminterpret%" -T "COMPOSER=%composer%" %haslyrics%--tag-from-file=LYRICS="%lyricsfile%"%haslyrics% -T "ALBUMARTIST=%albumartist%" -T "DISCNUMBER=%cdnumber%" -T "TOTALDISCS=%totalcds%" -T "TOTALTRACKS=%numtracks%" -T "COMMENT=%comment%" %source% -o %dest%

TOC of the extracted CD

     Track |   Start  |  Length  | Start sector | End sector
    ---------------------------------------------------------
        1  |  0:00.00 |  4:53.11 |         0    |    21985
        2  |  4:53.11 |  2:41.62 |     21986    |    34122
        3  |  7:34.73 |  4:18.74 |     34123    |    53546
        4  | 11:53.72 |  2:59.16 |     53547    |    66987
        5  | 14:53.13 |  4:17.22 |     66988    |    86284
        6  | 19:10.35 |  4:29.05 |     86285    |   106464
        7  | 23:39.40 |  3:38.69 |    106465    |   122883
        8  | 27:18.34 |  4:22.60 |    122884    |   142593
        9  | 31:41.19 |  2:22.00 |    142594    |   153243
       10  | 34:03.19 |  4:27.74 |    153244    |   173342

Track  1

     Filename C:\Staging\Clifford Jordan - These Are My Roots_ Clifford Jordan Plays Leadbelly\01 - Dick's Holler.wav

     Pre-gap length  0:00:02.00

     Peak level 100.0 %
     Extraction speed 2.5 X
     Track quality 99.9 %
     Test CRC E8E3A1E6
     Copy CRC E8E3A1E6
     Track not present in AccurateRip database
     Copy OK

Track  2

     Filename C:\Staging\Clifford Jordan - These Are My Roots_ Clifford Jordan Plays Leadbelly\02 - Silver City Bound.wav

     Pre-gap length  0:00:02.00

     Peak level 100.0 %
     Extraction speed 2.9 X
     Track quality 100.0 %
     Test CRC 40DB4C59
     Copy CRC 40DB4C59
     Track not present in AccurateRip database
     Copy OK

Track  3

     Filename C:\Staging\Clifford Jordan - These Are My Roots_ Clifford Jordan Plays Leadbelly\03 - Take This Hammer.wav

     Pre-gap length  0:00:02.00

     Peak level 100.0 %
     Extraction speed 3.3 X
     Track quality 100.0 %
     Test CRC FB60E4DE
     Copy CRC FB60E4DE
     Track not present in AccurateRip database
     Copy OK

Track  4

     Filename C:\Staging\Clifford Jordan - These Are My Roots_ Clifford Jordan Plays Leadbelly\04 - Black Betty.wav

     Pre-gap length  0:00:02.00

     Peak level 100.0 %
     Extraction speed 3.4 X
     Track quality 100.0 %
     Test CRC 8A565812
     Copy CRC 8A565812
     Track not present in AccurateRip database
     Copy OK

Track  5

     Filename C:\Staging\Clifford Jordan - These Are My Roots_ Clifford Jordan Plays Leadbelly\05 - The Highest Mountain.wav

     Pre-gap length  0:00:02.00

     Peak level 100.0 %
     Extraction speed 3.2 X
     Track quality 99.9 %
     Test CRC 44BAA706
     Copy CRC 44BAA706
     Track not present in AccurateRip database
     Copy OK

Track  6

     Filename C:\Staging\Clifford Jordan - These Are My Roots_ Clifford Jordan Plays Leadbelly\06 - Goodnight Irene.wav

     Pre-gap length  0:00:02.00

     Peak level 100.0 %
     Extraction speed 4.0 X
     Track quality 100.0 %
     Test CRC B569BFA2
     Copy CRC B569BFA2
     Track not present in AccurateRip database
     Copy OK

Track  7

     Filename C:\Staging\Clifford Jordan - These Are My Roots_ Clifford Jordan Plays Leadbelly\07 - De Gray Goose.wav

     Pre-gap length  0:00:02.00

     Peak level 100.0 %
     Extraction speed 4.1 X
     Track quality 100.0 %
     Test CRC BAEA012A
     Copy CRC BAEA012A
     Track not present in AccurateRip database
     Copy OK

Track  8

     Filename C:\Staging\Clifford Jordan - These Are My Roots_ Clifford Jordan Plays Leadbelly\08 - Black Girl.wav

     Pre-gap length  0:00:02.00

     Peak level 100.0 %
     Extraction speed 4.4 X
     Track quality 100.0 %
     Test CRC 79D0F64C
     Copy CRC 79D0F64C
     Track not present in AccurateRip database
     Copy OK

Track  9

     Filename C:\Staging\Clifford Jordan - These Are My Roots_ Clifford Jordan Plays Leadbelly\09 - Jolly O The Ransome.wav

     Pre-gap length  0:00:02.00

     Peak level 100.0 %
     Extraction speed 4.1 X
     Track quality 100.0 %
     Test CRC A9E241ED
     Copy CRC A9E241ED
     Track not present in AccurateRip database
     Copy OK

Track 10

     Filename C:\Staging\Clifford Jordan - These Are My Roots_ Clifford Jordan Plays Leadbelly\10 - Yellow Gal.wav

     Pre-gap length  0:00:02.00

     Peak level 100.0 %
     Extraction speed 4.7 X
     Track quality 100.0 %
     Test CRC 70FD89D1
     Copy CRC 70FD89D1
     Track not present in AccurateRip database
     Copy OK

None of the tracks are present in the AccurateRip database

No errors occurred

End of status report

---- CUETools DB Plugin V2.1.6

[CTDB TOCID: qkh1d52WOOY1x6y63yyBahPqBB4-] found
Submit result: qkh1d52WOOY1x6y63yyBahPqBB4- has been confirmed
Track | CTDB Status
  1   | (3/3) Accurately ripped
  2   | (3/3) Accurately ripped
  3   | (3/3) Accurately ripped
  4   | (3/3) Accurately ripped
  5   | (3/3) Accurately ripped
  6   | (3/3) Accurately ripped
  7   | (3/3) Accurately ripped
  8   | (3/3) Accurately ripped
  9   | (3/3) Accurately ripped
 10   | (2/3) Accurately ripped

==== Log checksum 27613704E7CD6C858DB3E459DD585BCAA7F3011C7B34892A2F3B5BAC82BF8AA9 ====
Содержание индексной карты (.CUE)
REM GENRE Jazz
REM DATE 1965
REM DISCID 7809070A
REM COMMENT "ExactAudioCopy v1.1"
PERFORMER "Clifford Jordan"
TITLE "These Are My Roots: Clifford Jordan Plays Leadbelly"
FILE "01 - Dick's Holler.wav" WAVE
  TRACK 01 AUDIO
    TITLE "Dick's Holler"
    PERFORMER "Clifford Jordan"
    INDEX 01 00:00:00
  TRACK 02 AUDIO
    TITLE "Silver City Bound"
    PERFORMER "Clifford Jordan"
    INDEX 00 04:51:11
FILE "02 - Silver City Bound.wav" WAVE
    INDEX 01 00:00:00
  TRACK 03 AUDIO
    TITLE "Take This Hammer"
    PERFORMER "Clifford Jordan"
    INDEX 00 02:39:62
FILE "03 - Take This Hammer.wav" WAVE
    INDEX 01 00:00:00
  TRACK 04 AUDIO
    TITLE "Black Betty"
    PERFORMER "Clifford Jordan"
    INDEX 00 04:16:74
FILE "04 - Black Betty.wav" WAVE
    INDEX 01 00:00:00
  TRACK 05 AUDIO
    TITLE "The Highest Mountain"
    PERFORMER "Clifford Jordan"
    INDEX 00 02:57:16
FILE "05 - The Highest Mountain.wav" WAVE
    INDEX 01 00:00:00
  TRACK 06 AUDIO
    TITLE "Goodnight Irene"
    PERFORMER "Clifford Jordan"
    INDEX 00 04:15:22
FILE "06 - Goodnight Irene.wav" WAVE
    INDEX 01 00:00:00
  TRACK 07 AUDIO
    TITLE "De Gray Goose"
    PERFORMER "Clifford Jordan"
    INDEX 00 04:27:05
FILE "07 - De Gray Goose.wav" WAVE
    INDEX 01 00:00:00
  TRACK 08 AUDIO
    TITLE "Black Girl"
    PERFORMER "Clifford Jordan"
    INDEX 00 03:36:69
FILE "08 - Black Girl.wav" WAVE
    INDEX 01 00:00:00
  TRACK 09 AUDIO
    TITLE "Jolly O the Ransome"
    PERFORMER "Clifford Jordan"
    INDEX 00 04:20:60
FILE "09 - Jolly O the Ransome.wav" WAVE
    INDEX 01 00:00:00
  TRACK 10 AUDIO
    TITLE "Yellow Gal"
    PERFORMER "Clifford Jordan"
    INDEX 00 02:20:00
FILE "10 - Yellow Gal.wav" WAVE
    INDEX 01 00:00:00
Скачивание доступно после регистрации!!
Приватный:
Нет (DHT включён)
Размер:
243.68 Мб (255,521,374 байт) » файлов: 17
Участники:
0 раздают, 0 качают (0 участников всего)
Внешние участники:
--- [ Обновить ]
20:23
61
Нет комментариев. Ваш будет первым!