Поиск

1950-1953 Tommy Dorsey - Tenderly: The Best of the Decca Years (2018) {Sepia 1322} [3CD]

1950-1953 Tommy Dorsey - Tenderly: The Best of the Decca Years (2018) {Sepia 1322} [3CD]
Стили:
Страна-производитель диска (релиза):
GB
Дата записи диска:
1950-1953
Дата издания диска:
2018
Издатель (лейбл):
Номер по каталогу:
1322
Носитель:
CD
Аудиокодек:
FLAC (*.flac)
Тип рипа:
tracks+.cue
Битрейт аудио:
lossless
Время звучания:
03:21:48
Наличие сканов:
нет
Релизёр (источник):
talzer
Треклист:
 
CD1 {67:18}

01. Opus Two (2:59)
02. They Didn't Believe Me (3:28)
03. Smoke Gets in Your Eyes (3:18)
04. The Touch of Your Hand (2:40)
05. You're Not in My Arms Tonight (3:03)
06. Hot Tom Alley (2:21)
07. September in the Rain (2:38)
08. Music, Maestro, Please! (2:57)
09. I Guess I'll Have to Change My Plans (2:25)
10. Sentimental Baby (2:40)
11. Goofus (2:50)
12. Wunderbar (3:20)
13. Indian Love Call (3:02)
14. Solitaire (3:10)
15. The Searching Wind (3:03)
16. Don't Take Your Love from Me (2:54)
17. Sweet Adeline (3:10)
18. Hour Glass Special (3:10)
19. I'll Know (2:51)
20. Falling in Love with Love (2:49)
21. In a Sentimental Mood (2:42)
22. It's a Lovely Day Today (3:09)
23. The Dirty Dozens (2:39)

 
Лог создания рипа
Exact Audio Copy V1.3 from 2. September 2016
EAC extraction logfile from 16. December 2018, 17:28
Tommy Dorsey / Tenderly: The Best of the Decca Years
Used drive  : hp PLDS DVDRW  DU8AESH   Adapter: 1  ID: 0
Read mode               : Secure
Utilize accurate stream : Yes
Defeat audio cache      : Yes
Make use of C2 pointers : No
Read offset correction                      : 6
Overread into Lead-In and Lead-Out          : No
Fill up missing offset samples with silence : Yes
Delete leading and trailing silent blocks   : No
Null samples used in CRC calculations       : Yes
Used interface                              : Native Win32 interface for Win NT & 2000
Gap handling                                : Appended to previous track
Used output format              : User Defined Encoder
Selected bitrate                : 1024 kBit/s
Quality                         : High
Add ID3 tag                     : No
Command line compressor         : C:\Program Files (x86)\Exact Audio Copy\Flac\flac.exe
Additional command line options : -8 -V -T "ARTIST=%artist%" -T "TITLE=%title%" -T "ALBUM=%albumtitle%" -T "DATE=%year%" -T "TRACKNUMBER=%tracknr%" -T "GENRE=%genre%" -T "PERFORMER=%albuminterpret%" -T "COMPOSER=%composer%" %haslyrics%--tag-from-file=LYRICS="%lyricsfile%"%haslyrics% -T "ALBUMARTIST=%albumartist%" -T "DISCNUMBER=%cdnumber%" -T "TOTALDISCS=%totalcds%" -T "TOTALTRACKS=%numtracks%" -T "COMMENT=%comment%" %source% -o %dest%
TOC of the extracted CD
     Track |   Start  |  Length  | Start sector | End sector
    ---------------------------------------------------------
        1  |  0:00.00 |  2:58.64 |         0    |    13413
        2  |  2:58.64 |  3:27.73 |     13414    |    29011
        3  |  6:26.62 |  3:18.22 |     29012    |    43883
        4  |  9:45.09 |  2:40.28 |     43884    |    55911
        5  | 12:25.37 |  3:02.42 |     55912    |    69603
        6  | 15:28.04 |  2:21.02 |     69604    |    80180
        7  | 17:49.06 |  2:38.30 |     80181    |    92060
        8  | 20:27.36 |  2:57.21 |     92061    |   105356
        9  | 23:24.57 |  2:24.42 |    105357    |   116198
       10  | 25:49.24 |  2:39.59 |    116199    |   128182
       11  | 28:29.08 |  2:50.26 |    128183    |   140958
       12  | 31:19.34 |  3:19.57 |    140959    |   155940
       13  | 34:39.16 |  3:01.72 |    155941    |   169587
       14  | 37:41.13 |  3:10.12 |    169588    |   183849
       15  | 40:51.25 |  3:02.63 |    183850    |   197562
       16  | 43:54.13 |  2:53.56 |    197563    |   210593
       17  | 46:47.69 |  3:09.65 |    210594    |   224833
       18  | 49:57.59 |  3:10.36 |    224834    |   239119
       19  | 53:08.20 |  2:50.38 |    239120    |   251907
       20  | 55:58.58 |  2:48.47 |    251908    |   264554
       21  | 58:47.30 |  2:42.17 |    264555    |   276721
       22  | 61:29.47 |  3:09.35 |    276722    |   290931
       23  | 64:39.07 |  2:38.42 |    290932    |   302823
Track  1
     Filename D:\Dropbox\EAC\Tommy Dorsey - Tenderly- The Best of the Decca Years (2018) [FLAC]\CD1\01. Opus Two.wav
     Pre-gap length  0:00:02.00
     Peak level 89.7 %
     Extraction speed 1.2 X
     Track quality 100.0 %
     Test CRC ED9DBAEA
     Copy CRC ED9DBAEA
     Track not present in AccurateRip database
     Copy OK
Track  2
     Filename D:\Dropbox\EAC\Tommy Dorsey - Tenderly- The Best of the Decca Years (2018) [FLAC]\CD1\02. They Didn't Believe Me.wav
     Pre-gap length  0:00:02.76
     Peak level 90.2 %
     Extraction speed 1.3 X
     Track quality 100.0 %
     Test CRC 31F87D50
     Copy CRC 31F87D50
     Track not present in AccurateRip database
     Copy OK
Track  3
     Filename D:\Dropbox\EAC\Tommy Dorsey - Tenderly- The Best of the Decca Years (2018) [FLAC]\CD1\03. Smoke Gets In Your Eyes.wav
     Pre-gap length  0:00:02.76
     Peak level 92.9 %
     Extraction speed 1.4 X
     Track quality 100.0 %
     Test CRC 177490A8
     Copy CRC 177490A8
     Track not present in AccurateRip database
     Copy OK
Track  4
     Filename D:\Dropbox\EAC\Tommy Dorsey - Tenderly- The Best of the Decca Years (2018) [FLAC]\CD1\04. The Touch of Your Hand.wav
     Pre-gap length  0:00:02.76
     Peak level 91.5 %
     Extraction speed 1.4 X
     Track quality 100.0 %
     Test CRC C96C8C9F
     Copy CRC C96C8C9F
     Track not present in AccurateRip database
     Copy OK
Track  5
     Filename D:\Dropbox\EAC\Tommy Dorsey - Tenderly- The Best of the Decca Years (2018) [FLAC]\CD1\05. You're Not In My Arms Tonight.wav
     Pre-gap length  0:00:02.76
     Peak level 84.6 %
     Extraction speed 1.3 X
     Track quality 99.9 %
     Test CRC 095E90B6
     Copy CRC 095E90B6
     Track not present in AccurateRip database
     Copy OK
Track  6
     Filename D:\Dropbox\EAC\Tommy Dorsey - Tenderly- The Best of the Decca Years (2018) [FLAC]\CD1\06. Hot Tom Alley.wav
     Pre-gap length  0:00:02.76
     Peak level 94.3 %
     Extraction speed 1.5 X
     Track quality 100.0 %
     Test CRC 4EE87BAC
     Copy CRC 4EE87BAC
     Track not present in AccurateRip database
     Copy OK
Track  7
     Filename D:\Dropbox\EAC\Tommy Dorsey - Tenderly- The Best of the Decca Years (2018) [FLAC]\CD1\07. September in the Rain.wav
     Pre-gap length  0:00:02.76
     Peak level 97.3 %
     Extraction speed 1.6 X
     Track quality 100.0 %
     Test CRC 0C8C5EBC
     Copy CRC 0C8C5EBC
     Track not present in AccurateRip database
     Copy OK
Track  8
     Filename D:\Dropbox\EAC\Tommy Dorsey - Tenderly- The Best of the Decca Years (2018) [FLAC]\CD1\08. Music, Maestro, Please!.wav
     Pre-gap length  0:00:02.76
     Peak level 92.0 %
     Extraction speed 1.5 X
     Track quality 99.9 %
     Test CRC 58C416A7
     Copy CRC 58C416A7
     Track not present in AccurateRip database
     Copy OK
Track  9
     Filename D:\Dropbox\EAC\Tommy Dorsey - Tenderly- The Best of the Decca Years (2018) [FLAC]\CD1\09. I Guess I'll Have To Change My Plans.wav
     Pre-gap length  0:00:02.76
     Peak level 97.0 %
     Extraction speed 1.7 X
     Track quality 100.0 %
     Test CRC 9903A6D3
     Copy CRC 9903A6D3
     Track not present in AccurateRip database
     Copy OK
Track 10
     Filename D:\Dropbox\EAC\Tommy Dorsey - Tenderly- The Best of the Decca Years (2018) [FLAC]\CD1\10. Sentimental Baby.wav
     Pre-gap length  0:00:02.76
     Peak level 95.1 %
     Extraction speed 1.8 X
     Track quality 100.0 %
     Test CRC 1292F2D1
     Copy CRC 1292F2D1
     Track not present in AccurateRip database
     Copy OK
Track 11
     Filename D:\Dropbox\EAC\Tommy Dorsey - Tenderly- The Best of the Decca Years (2018) [FLAC]\CD1\11. Goofus.wav
     Pre-gap length  0:00:02.76
     Peak level 97.5 %
     Extraction speed 1.8 X
     Track quality 100.0 %
     Test CRC 835D9565
     Copy CRC 835D9565
     Track not present in AccurateRip database
     Copy OK
Track 12
     Filename D:\Dropbox\EAC\Tommy Dorsey - Tenderly- The Best of the Decca Years (2018) [FLAC]\CD1\12. Wunderbar.wav
     Pre-gap length  0:00:02.76
     Peak level 97.0 %
     Extraction speed 2.0 X
     Track quality 100.0 %
     Test CRC 1A10E9B7
     Copy CRC 1A10E9B7
     Track not present in AccurateRip database
     Copy OK
Track 13
     Filename D:\Dropbox\EAC\Tommy Dorsey - Tenderly- The Best of the Decca Years (2018) [FLAC]\CD1\13. Indian Love Call.wav
     Pre-gap length  0:00:02.76
     Peak level 97.0 %
     Extraction speed 2.0 X
     Track quality 100.0 %
     Test CRC BE505051
     Copy CRC BE505051
     Track not present in AccurateRip database
     Copy OK
Track 14
     Filename D:\Dropbox\EAC\Tommy Dorsey - Tenderly- The Best of the Decca Years (2018) [FLAC]\CD1\14. Solitare.wav
     Pre-gap length  0:00:02.76
     Peak level 96.6 %
     Extraction speed 2.1 X
     Track quality 100.0 %
     Test CRC DBBD927F
     Copy CRC DBBD927F
     Track not present in AccurateRip database
     Copy OK
Track 15
     Filename D:\Dropbox\EAC\Tommy Dorsey - Tenderly- The Best of the Decca Years (2018) [FLAC]\CD1\15. The Searching Wind.wav
     Pre-gap length  0:00:02.76
     Peak level 94.4 %
     Extraction speed 2.1 X
     Track quality 100.0 %
     Test CRC 7B5695C3
     Copy CRC 7B5695C3
     Track not present in AccurateRip database
     Copy OK
Track 16
     Filename D:\Dropbox\EAC\Tommy Dorsey - Tenderly- The Best of the Decca Years (2018) [FLAC]\CD1\16. Don't Take Your Love From Me.wav
     Pre-gap length  0:00:02.76
     Peak level 95.7 %
     Extraction speed 2.1 X
     Track quality 100.0 %
     Test CRC 435B58BC
     Copy CRC 435B58BC
     Track not present in AccurateRip database
     Copy OK
Track 17
     Filename D:\Dropbox\EAC\Tommy Dorsey - Tenderly- The Best of the Decca Years (2018) [FLAC]\CD1\17. Sweet Adeline.wav
     Pre-gap length  0:00:02.76
     Peak level 97.4 %
     Extraction speed 1.9 X
     Track quality 99.9 %
     Test CRC 8A961622
     Copy CRC 8A961622
     Track not present in AccurateRip database
     Copy OK
Track 18
     Filename D:\Dropbox\EAC\Tommy Dorsey - Tenderly- The Best of the Decca Years (2018) [FLAC]\CD1\18. Hour Glass Special.wav
     Pre-gap length  0:00:02.76
     Peak level 98.5 %
     Extraction speed 2.3 X
     Track quality 100.0 %
     Test CRC 164C6759
     Copy CRC 164C6759
     Track not present in AccurateRip database
     Copy OK
Track 19
     Filename D:\Dropbox\EAC\Tommy Dorsey - Tenderly- The Best of the Decca Years (2018) [FLAC]\CD1\19. I'll Know.wav
     Pre-gap length  0:00:02.76
     Peak level 98.4 %
     Extraction speed 2.3 X
     Track quality 100.0 %
     Test CRC 90E93FCB
     Copy CRC 90E93FCB
     Track not present in AccurateRip database
     Copy OK
Track 20
     Filename D:\Dropbox\EAC\Tommy Dorsey - Tenderly- The Best of the Decca Years (2018) [FLAC]\CD1\20. Falling In Love With Love.wav
     Pre-gap length  0:00:02.76
     Peak level 99.8 %
     Extraction speed 2.0 X
     Track quality 99.9 %
     Test CRC 1439C454
     Copy CRC 1439C454
     Track not present in AccurateRip database
     Copy OK
Track 21
     Filename D:\Dropbox\EAC\Tommy Dorsey - Tenderly- The Best of the Decca Years (2018) [FLAC]\CD1\21. In a Sentimental Mood.wav
     Pre-gap length  0:00:02.76
     Peak level 98.7 %
     Extraction speed 2.3 X
     Track quality 100.0 %
     Test CRC 3CA1506A
     Copy CRC 3CA1506A
     Track not present in AccurateRip database
     Copy OK
Track 22
     Filename D:\Dropbox\EAC\Tommy Dorsey - Tenderly- The Best of the Decca Years (2018) [FLAC]\CD1\22. It's a Lovely Day Today.wav
     Pre-gap length  0:00:02.76
     Peak level 93.3 %
     Extraction speed 2.5 X
     Track quality 100.0 %
     Test CRC 4007E98B
     Copy CRC 4007E98B
     Track not present in AccurateRip database
     Copy OK
Track 23
     Filename D:\Dropbox\EAC\Tommy Dorsey - Tenderly- The Best of the Decca Years (2018) [FLAC]\CD1\23. The Dirty Dozens.wav
     Pre-gap length  0:00:02.76
     Peak level 98.8 %
     Extraction speed 2.4 X
     Track quality 100.0 %
     Test CRC 1777B357
     Copy CRC 1777B357
     Track not present in AccurateRip database
     Copy OK
None of the tracks are present in the AccurateRip database
No errors occurred
End of status report
---- CUETools DB Plugin V2.1.6
[CTDB TOCID: wUgs.PTZNdFLx64XQXeTojCbwQs-] found
Submit result: wUgs.PTZNdFLx64XQXeTojCbwQs- has been confirmed
Track | CTDB Status
  1   | (1/1) Accurately ripped
  2   | (1/1) Accurately ripped
  3   | (1/1) Accurately ripped
  4   | (1/1) Accurately ripped
  5   | (1/1) Accurately ripped
  6   | (1/1) Accurately ripped
  7   | (1/1) Accurately ripped
  8   | (1/1) Accurately ripped
  9   | (1/1) Accurately ripped
 10   | (1/1) Accurately ripped
 11   | (1/1) Accurately ripped
 12   | (1/1) Accurately ripped
 13   | (1/1) Accurately ripped
 14   | (1/1) Accurately ripped
 15   | (1/1) Accurately ripped
 16   | (1/1) Accurately ripped
 17   | (1/1) Accurately ripped
 18   | (1/1) Accurately ripped
 19   | (1/1) Accurately ripped
 20   | (1/1) Accurately ripped
 21   | (1/1) Accurately ripped
 22   | (1/1) Accurately ripped
 23   | (1/1) Accurately ripped
==== Log checksum D1EC68EF277F3BB19D94ECE71509C7CF02E9F675ACC1FBEA225949F18C7DED1C ====
 
Содержание индексной карты (.CUE)
REM GENRE Jazz
REM DATE 2018
REM DISCID 550FC517
REM COMMENT "ExactAudioCopy v1.3"
PERFORMER "Tommy Dorsey"
TITLE "Tenderly: The Best of the Decca Years CD1"
FILE "01 - Opus Two.wav" WAVE
  TRACK 01 AUDIO
    TITLE "Opus Two"
    PERFORMER "Tommy Dorsey"
    ISRC GBFHG1800083
    INDEX 01 00:00:00
  TRACK 02 AUDIO
    TITLE "They Didn't Believe Me"
    PERFORMER "Tommy Dorsey"
    ISRC GBFHG1800084
    INDEX 00 02:56:07
FILE "02 - They Didn't Believe Me.wav" WAVE
    INDEX 01 00:00:00
  TRACK 03 AUDIO
    TITLE "Smoke Gets in Your Eyes"
    PERFORMER "Tommy Dorsey"
    ISRC GBFHG1800085
    INDEX 00 03:25:16
FILE "03 - Smoke Gets in Your Eyes.wav" WAVE
    INDEX 01 00:00:00
  TRACK 04 AUDIO
    TITLE "The Touch of Your Hand"
    PERFORMER "Tommy Dorsey"
    ISRC GBFHG1800086
    INDEX 00 03:15:40
FILE "04 - The Touch of Your Hand.wav" WAVE
    INDEX 01 00:00:00
  TRACK 05 AUDIO
    TITLE "You're Not in My Arms Tonight"
    PERFORMER "Tommy Dorsey"
    ISRC GBFHG1800087
    INDEX 00 02:37:46
FILE "05 - You're Not in My Arms Tonight.wav" WAVE
    INDEX 01 00:00:00
  TRACK 06 AUDIO
    TITLE "Hot Tom Alley"
    PERFORMER "Tommy Dorsey"
    ISRC GBFHG1800088
    INDEX 00 02:59:60
FILE "06 - Hot Tom Alley.wav" WAVE
    INDEX 01 00:00:00
  TRACK 07 AUDIO
    TITLE "September in the Rain"
    PERFORMER "Tommy Dorsey"
    ISRC GBFHG1800089
    INDEX 00 02:18:20
FILE "07 - September in the Rain.wav" WAVE
    INDEX 01 00:00:00
  TRACK 08 AUDIO
    TITLE "Music, Maestro, Please!"
    PERFORMER "Tommy Dorsey"
    ISRC GBFHG1800090
    INDEX 00 02:35:48
FILE "08 - Music, Maestro, Please!.wav" WAVE
    INDEX 01 00:00:00
  TRACK 09 AUDIO
    TITLE "I Guess I'll Have to Change My Plans"
    PERFORMER "Tommy Dorsey"
    ISRC GBFHG1800091
    INDEX 00 02:54:39
FILE "09 - I Guess I'll Have to Change My Plans.wav" WAVE
    INDEX 01 00:00:00
  TRACK 10 AUDIO
    TITLE "Sentimental Baby"
    PERFORMER "Tommy Dorsey"
    ISRC GBFHG1800092
    INDEX 00 02:21:60
FILE "10 - Sentimental Baby.wav" WAVE
    INDEX 01 00:00:00
  TRACK 11 AUDIO
    TITLE "Goofus"
    PERFORMER "Tommy Dorsey"
    ISRC GBFHG1800093
    INDEX 00 02:37:02
FILE "11 - Goofus.wav" WAVE
    INDEX 01 00:00:00
  TRACK 12 AUDIO
    TITLE "Wunderbar"
    PERFORMER "Tommy Dorsey"
    ISRC GBFHG1800094
    INDEX 00 02:47:44
FILE "12 - Wunderbar.wav" WAVE
    INDEX 01 00:00:00
  TRACK 13 AUDIO
    TITLE "Indian Love Call"
    PERFORMER "Tommy Dorsey"
    ISRC GBFHG1800095
    INDEX 00 03:17:00
FILE "13 - Indian Love Call.wav" WAVE
    INDEX 01 00:00:00
  TRACK 14 AUDIO
    TITLE "Solitaire"
    PERFORMER "Tommy Dorsey"
    ISRC GBFHG1800096
    INDEX 00 02:59:15
FILE "14 - Solitaire.wav" WAVE
    INDEX 01 00:00:00
  TRACK 15 AUDIO
    TITLE "The Searching Wind"
    PERFORMER "Tommy Dorsey"
    ISRC GBFHG1800097
    INDEX 00 03:07:30
FILE "15 - The Searching Wind.wav" WAVE
    INDEX 01 00:00:00
  TRACK 16 AUDIO
    TITLE "Don't Take Your Love from Me"
    PERFORMER "Tommy Dorsey"
    ISRC GBFHG1800098
    INDEX 00 03:00:06
FILE "16 - Don't Take Your Love from Me.wav" WAVE
    INDEX 01 00:00:00
  TRACK 17 AUDIO
    TITLE "Sweet Adeline"
    PERFORMER "Tommy Dorsey"
    ISRC GBFHG1800099
    INDEX 00 02:50:74
FILE "17 - Sweet Adeline.wav" WAVE
    INDEX 01 00:00:00
  TRACK 18 AUDIO
    TITLE "Hour Glass Special"
    PERFORMER "Tommy Dorsey"
    ISRC GBFHG1800100
    INDEX 00 03:07:08
FILE "18 - Hour Glass Special.wav" WAVE
    INDEX 01 00:00:00
  TRACK 19 AUDIO
    TITLE "I'll Know"
    PERFORMER "Tommy Dorsey"
    ISRC GBFHG1800101
    INDEX 00 03:07:54
FILE "19 - I'll Know.wav" WAVE
    INDEX 01 00:00:00
  TRACK 20 AUDIO
    TITLE "Falling in Love with Love"
    PERFORMER "Tommy Dorsey"
    ISRC GBFHG1800102
    INDEX 00 02:47:56
FILE "20 - Falling in Love with Love.wav" WAVE
    INDEX 01 00:00:00
  TRACK 21 AUDIO
    TITLE "In a Sentimental Mood"
    PERFORMER "Tommy Dorsey"
    ISRC GBFHG1800103
    INDEX 00 02:45:65
FILE "21 - In a Sentimental Mood.wav" WAVE
    INDEX 01 00:00:00
  TRACK 22 AUDIO
    TITLE "It's a Lovely Day Today"
    PERFORMER "Tommy Dorsey"
    ISRC GBFHG1800104
    INDEX 00 02:39:35
FILE "22 - It's a Lovely Day Today.wav" WAVE
    INDEX 01 00:00:00
  TRACK 23 AUDIO
    TITLE "The Dirty Dozens"
    PERFORMER "Tommy Dorsey"
    ISRC GBFHG1800105
    INDEX 00 03:06:53
FILE "23 - The Dirty Dozens.wav" WAVE
    INDEX 01 00:00:00
 
CD2 {66:12}

01. The Blue Room (3:20)
02. Louisiana Hayride (2:35)
03. You and the Night and the Music (2:48)
04. Sentimental Serenade (3:04)
05. Juba Dance (2:15)
06. Tenderly (2:23)
07. If There Is Someone Lovelier Than You (2:38)
08. Only a Moment Ago (3:24)
09. No So Spanish Please (3:12)
10. Body and Soul (3:34)
11. Sentimental and Melancholy (2:35)
12. I Wonder Who's Kissing Her Now (2:20)
13. (I Love You) For Sentimental Reasons (3:02)
14. The Honeydripper (2:56)
15. Keel Row (3:21)
16. Diane (3:24)
17. Ritual Fire Dance (2:17)
18. You're the One (3:14)
19. Alone Together (3:02)
20. Lullaby of Broadway (3:05)
21. Blue and Sentimental (3:08)
22. My Love (2:29)
23. Grieg's Grotto (2:06)

 
Лог создания рипа
Exact Audio Copy V1.3 from 2. September 2016
EAC extraction logfile from 16. December 2018, 18:59
Tommy Dorsey / Tenderly: The Best of the Decca Years
Used drive  : hp PLDS DVDRW  DU8AESH   Adapter: 1  ID: 0
Read mode               : Secure
Utilize accurate stream : Yes
Defeat audio cache      : Yes
Make use of C2 pointers : No
Read offset correction                      : 6
Overread into Lead-In and Lead-Out          : No
Fill up missing offset samples with silence : Yes
Delete leading and trailing silent blocks   : No
Null samples used in CRC calculations       : Yes
Used interface                              : Native Win32 interface for Win NT & 2000
Gap handling                                : Appended to previous track
Used output format              : User Defined Encoder
Selected bitrate                : 1024 kBit/s
Quality                         : High
Add ID3 tag                     : No
Command line compressor         : C:\Program Files (x86)\Exact Audio Copy\Flac\flac.exe
Additional command line options : -8 -V -T "ARTIST=%artist%" -T "TITLE=%title%" -T "ALBUM=%albumtitle%" -T "DATE=%year%" -T "TRACKNUMBER=%tracknr%" -T "GENRE=%genre%" -T "PERFORMER=%albuminterpret%" -T "COMPOSER=%composer%" %haslyrics%--tag-from-file=LYRICS="%lyricsfile%"%haslyrics% -T "ALBUMARTIST=%albumartist%" -T "DISCNUMBER=%cdnumber%" -T "TOTALDISCS=%totalcds%" -T "TOTALTRACKS=%numtracks%" -T "COMMENT=%comment%" %source% -o %dest%
TOC of the extracted CD
     Track |   Start  |  Length  | Start sector | End sector
    ---------------------------------------------------------
        1  |  0:00.00 |  3:20.13 |         0    |    15012
        2  |  3:20.13 |  2:34.51 |     15013    |    26613
        3  |  5:54.64 |  2:48.18 |     26614    |    39231
        4  |  8:43.07 |  3:03.67 |     39232    |    53023
        5  | 11:46.74 |  2:15.34 |     53024    |    63182
        6  | 14:02.33 |  2:23.08 |     63183    |    73915
        7  | 16:25.41 |  2:37.73 |     73916    |    85763
        8  | 19:03.39 |  3:23.43 |     85764    |   101031
        9  | 22:27.07 |  3:11.59 |    101032    |   115415
       10  | 25:38.66 |  3:33.56 |    115416    |   131446
       11  | 29:12.47 |  2:35.00 |    131447    |   143071
       12  | 31:47.47 |  2:20.33 |    143072    |   153604
       13  | 34:08.05 |  3:01.50 |    153605    |   167229
       14  | 37:09.55 |  2:56.08 |    167230    |   180437
       15  | 40:05.63 |  3:20.50 |    180438    |   195487
       16  | 43:26.38 |  3:24.12 |    195488    |   210799
       17  | 46:50.50 |  2:16.66 |    210800    |   221065
       18  | 49:07.41 |  3:14.15 |    221066    |   235630
       19  | 52:21.56 |  3:02.12 |    235631    |   249292
       20  | 55:23.68 |  3:05.00 |    249293    |   263167
       21  | 58:28.68 |  3:08.08 |    263168    |   277275
       22  | 61:37.01 |  2:29.03 |    277276    |   288453
       23  | 64:06.04 |  2:06.06 |    288454    |   297909
Track  1
     Filename D:\Dropbox\EAC\Tommy Dorsey - Tenderly- The Best of the Decca Years (2018) [FLAC]\CD2\01. The Blue Room.wav
     Pre-gap length  0:00:02.00
     Peak level 94.6 %
     Extraction speed 2.2 X
     Track quality 99.9 %
     Test CRC EA66E0AB
     Copy CRC EA66E0AB
     Track not present in AccurateRip database
     Copy OK
Track  2
     Filename D:\Dropbox\EAC\Tommy Dorsey - Tenderly- The Best of the Decca Years (2018) [FLAC]\CD2\02. Louisiana Hayride.wav
     Pre-gap length  0:00:02.76
     Peak level 98.3 %
     Extraction speed 2.2 X
     Track quality 99.9 %
     Test CRC 9F90F0AC
     Copy CRC 9F90F0AC
     Track not present in AccurateRip database
     Copy OK
Track  3
     Filename D:\Dropbox\EAC\Tommy Dorsey - Tenderly- The Best of the Decca Years (2018) [FLAC]\CD2\03. You and the Night and the Music.wav
     Pre-gap length  0:00:02.76
     Peak level 93.2 %
     Extraction speed 3.0 X
     Track quality 100.0 %
     Test CRC F6DB421A
     Copy CRC F6DB421A
     Track not present in AccurateRip database
     Copy OK
Track  4
     Filename D:\Dropbox\EAC\Tommy Dorsey - Tenderly- The Best of the Decca Years (2018) [FLAC]\CD2\04. Sentimental Serenade.wav
     Pre-gap length  0:00:02.76
     Peak level 94.9 %
     Extraction speed 2.6 X
     Track quality 99.9 %
     Test CRC D86DAB8B
     Copy CRC D86DAB8B
     Track not present in AccurateRip database
     Copy OK
Track  5
     Filename D:\Dropbox\EAC\Tommy Dorsey - Tenderly- The Best of the Decca Years (2018) [FLAC]\CD2\05. Juba Dance.wav
     Pre-gap length  0:00:02.76
     Peak level 93.3 %
     Extraction speed 2.4 X
     Track quality 99.9 %
     Test CRC 052BB8ED
     Copy CRC 052BB8ED
     Track not present in AccurateRip database
     Copy OK
Track  6
     Filename D:\Dropbox\EAC\Tommy Dorsey - Tenderly- The Best of the Decca Years (2018) [FLAC]\CD2\06. Tenderly.wav
     Pre-gap length  0:00:02.76
     Peak level 92.6 %
     Extraction speed 2.6 X
     Track quality 99.9 %
     Test CRC 52A72D12
     Copy CRC 52A72D12
     Track not present in AccurateRip database
     Copy OK
Track  7
     Filename D:\Dropbox\EAC\Tommy Dorsey - Tenderly- The Best of the Decca Years (2018) [FLAC]\CD2\07. If There Is Someone Lovelier Than You.wav
     Pre-gap length  0:00:02.76
     Peak level 95.6 %
     Extraction speed 3.5 X
     Track quality 100.0 %
     Test CRC 90B56BF9
     Copy CRC 90B56BF9
     Track not present in AccurateRip database
     Copy OK
Track  8
     Filename D:\Dropbox\EAC\Tommy Dorsey - Tenderly- The Best of the Decca Years (2018) [FLAC]\CD2\08. Only a Moment Ago.wav
     Pre-gap length  0:00:02.76
     Peak level 93.2 %
     Extraction speed 3.9 X
     Track quality 100.0 %
     Test CRC 4BEFCB2F
     Copy CRC 4BEFCB2F
     Track not present in AccurateRip database
     Copy OK
Track  9
     Filename D:\Dropbox\EAC\Tommy Dorsey - Tenderly- The Best of the Decca Years (2018) [FLAC]\CD2\09. No So Spanish Please.wav
     Pre-gap length  0:00:02.76
     Peak level 91.7 %
     Extraction speed 4.0 X
     Track quality 100.0 %
     Test CRC 87028024
     Copy CRC 87028024
     Track not present in AccurateRip database
     Copy OK
Track 10
     Filename D:\Dropbox\EAC\Tommy Dorsey - Tenderly- The Best of the Decca Years (2018) [FLAC]\CD2\10. Body and Soul.wav
     Pre-gap length  0:00:02.76
     Peak level 92.4 %
     Extraction speed 4.3 X
     Track quality 100.0 %
     Test CRC EAC75B59
     Copy CRC EAC75B59
     Track not present in AccurateRip database
     Copy OK
Track 11
     Filename D:\Dropbox\EAC\Tommy Dorsey - Tenderly- The Best of the Decca Years (2018) [FLAC]\CD2\11. Sentimental and Melancholy.wav
     Pre-gap length  0:00:02.76
     Peak level 95.2 %
     Extraction speed 3.3 X
     Track quality 99.9 %
     Test CRC 3FB1C85F
     Copy CRC 3FB1C85F
     Track not present in AccurateRip database
     Copy OK
Track 12
     Filename D:\Dropbox\EAC\Tommy Dorsey - Tenderly- The Best of the Decca Years (2018) [FLAC]\CD2\12. I Wonder Who's Kissing Her Now.wav
     Pre-gap length  0:00:02.76
     Peak level 99.0 %
     Extraction speed 3.2 X
     Track quality 99.9 %
     Test CRC 67C45E84
     Copy CRC 67C45E84
     Track not present in AccurateRip database
     Copy OK
Track 13
     Filename D:\Dropbox\EAC\Tommy Dorsey - Tenderly- The Best of the Decca Years (2018) [FLAC]\CD2\13. (I Love You) For Sentimental Reasons.wav
     Pre-gap length  0:00:02.76
     Peak level 94.2 %
     Extraction speed 4.5 X
     Track quality 100.0 %
     Test CRC BC1AEEE0
     Copy CRC BC1AEEE0
     Track not present in AccurateRip database
     Copy OK
Track 14
     Filename D:\Dropbox\EAC\Tommy Dorsey - Tenderly- The Best of the Decca Years (2018) [FLAC]\CD2\14. The Honeydripper.wav
     Pre-gap length  0:00:02.76
     Peak level 91.2 %
     Extraction speed 4.6 X
     Track quality 100.0 %
     Test CRC 6ECC56B9
     Copy CRC 6ECC56B9
     Track not present in AccurateRip database
     Copy OK
Track 15
     Filename D:\Dropbox\EAC\Tommy Dorsey - Tenderly- The Best of the Decca Years (2018) [FLAC]\CD2\15. Keel Row.wav
     Pre-gap length  0:00:02.76
     Peak level 94.8 %
     Extraction speed 4.8 X
     Track quality 100.0 %
     Test CRC CBBE667F
     Copy CRC CBBE667F
     Track not present in AccurateRip database
     Copy OK
Track 16
     Filename D:\Dropbox\EAC\Tommy Dorsey - Tenderly- The Best of the Decca Years (2018) [FLAC]\CD2\16. Diane.wav
     Pre-gap length  0:00:02.76
     Peak level 95.5 %
     Extraction speed 4.1 X
     Track quality 99.9 %
     Test CRC 3536F9CB
     Copy CRC 3536F9CB
     Track not present in AccurateRip database
     Copy OK
Track 17
     Filename D:\Dropbox\EAC\Tommy Dorsey - Tenderly- The Best of the Decca Years (2018) [FLAC]\CD2\17. Ritual Fire Dance.wav
     Pre-gap length  0:00:02.76
     Peak level 97.0 %
     Extraction speed 4.7 X
     Track quality 100.0 %
     Test CRC AAB87580
     Copy CRC AAB87580
     Track not present in AccurateRip database
     Copy OK
Track 18
     Filename D:\Dropbox\EAC\Tommy Dorsey - Tenderly- The Best of the Decca Years (2018) [FLAC]\CD2\18. You're the One.wav
     Pre-gap length  0:00:02.76
     Peak level 94.7 %
     Extraction speed 4.2 X
     Track quality 99.9 %
     Test CRC 128B185D
     Copy CRC 128B185D
     Track not present in AccurateRip database
     Copy OK
Track 19
     Filename D:\Dropbox\EAC\Tommy Dorsey - Tenderly- The Best of the Decca Years (2018) [FLAC]\CD2\19. Alone Together.wav
     Pre-gap length  0:00:02.76
     Peak level 95.2 %
     Extraction speed 5.2 X
     Track quality 100.0 %
     Test CRC BE6B6B5F
     Copy CRC BE6B6B5F
     Track not present in AccurateRip database
     Copy OK
Track 20
     Filename D:\Dropbox\EAC\Tommy Dorsey - Tenderly- The Best of the Decca Years (2018) [FLAC]\CD2\20. Lullaby of Broadway.wav
     Pre-gap length  0:00:02.76
     Peak level 94.1 %
     Extraction speed 5.3 X
     Track quality 100.0 %
     Test CRC EAAB6C1C
     Copy CRC EAAB6C1C
     Track not present in AccurateRip database
     Copy OK
Track 21
     Filename D:\Dropbox\EAC\Tommy Dorsey - Tenderly- The Best of the Decca Years (2018) [FLAC]\CD2\21. Blue and Sentimental.wav
     Pre-gap length  0:00:02.76
     Peak level 96.3 %
     Extraction speed 5.5 X
     Track quality 100.0 %
     Test CRC 213817A7
     Copy CRC 213817A7
     Track not present in AccurateRip database
     Copy OK
Track 22
     Filename D:\Dropbox\EAC\Tommy Dorsey - Tenderly- The Best of the Decca Years (2018) [FLAC]\CD2\22. My Love.wav
     Pre-gap length  0:00:02.76
     Peak level 98.2 %
     Extraction speed 4.1 X
     Track quality 99.9 %
     Test CRC 2BC7F38A
     Copy CRC 2BC7F38A
     Track not present in AccurateRip database
     Copy OK
Track 23
     Filename D:\Dropbox\EAC\Tommy Dorsey - Tenderly- The Best of the Decca Years (2018) [FLAC]\CD2\23. Grieg's Grotto.wav
     Pre-gap length  0:00:02.76
     Peak level 93.9 %
     Extraction speed 5.2 X
     Track quality 100.0 %
     Test CRC 0BE068A2
     Copy CRC 0BE068A2
     Track not present in AccurateRip database
     Copy OK
None of the tracks are present in the AccurateRip database
No errors occurred
End of status report
---- CUETools DB Plugin V2.1.6
[CTDB TOCID: 93iybZnt4kFtz2_cbIGo3MAmP60-] found
Submit result: 93iybZnt4kFtz2_cbIGo3MAmP60- has been confirmed
Track | CTDB Status
  1   | (1/1) Accurately ripped
  2   | (1/1) Accurately ripped
  3   | (1/1) Accurately ripped
  4   | (1/1) Accurately ripped
  5   | (1/1) Accurately ripped
  6   | (1/1) Accurately ripped
  7   | (1/1) Accurately ripped
  8   | (1/1) Accurately ripped
  9   | (1/1) Accurately ripped
 10   | (1/1) Accurately ripped
 11   | (1/1) Accurately ripped
 12   | (1/1) Accurately ripped
 13   | (1/1) Accurately ripped
 14   | (1/1) Accurately ripped
 15   | (1/1) Accurately ripped
 16   | (1/1) Accurately ripped
 17   | (1/1) Accurately ripped
 18   | (1/1) Accurately ripped
 19   | (1/1) Accurately ripped
 20   | (1/1) Accurately ripped
 21   | (1/1) Accurately ripped
 22   | (1/1) Accurately ripped
 23   | (1/1) Accurately ripped
==== Log checksum 63F27278227DB0DE1D44EFC9D703E36F6E838A398109BE2FD5D71C66F67E4BC9 ====
 
Содержание индексной карты (.CUE)
REM GENRE Jazz
REM DATE 2018
REM DISCID 460F8417
REM COMMENT "ExactAudioCopy v1.3"
PERFORMER "Tommy Dorsey"
TITLE "Tenderly: The Best of the Decca Years CD2"
FILE "01 - The Blue Room.wav" WAVE
  TRACK 01 AUDIO
    TITLE "The Blue Room"
    PERFORMER "Tommy Dorsey"
    ISRC GBFHG1800106
    INDEX 01 00:00:00
  TRACK 02 AUDIO
    TITLE "Louisiana Hayride"
    PERFORMER "Tommy Dorsey"
    ISRC GBFHG1800107
    INDEX 00 03:17:31
FILE "02 - Louisiana Hayride.wav" WAVE
    INDEX 01 00:00:00
  TRACK 03 AUDIO
    TITLE "You and the Night and the Music"
    PERFORMER "Tommy Dorsey"
    ISRC GBFHG1800108
    INDEX 00 02:31:69
FILE "03 - You and the Night and the Music.wav" WAVE
    INDEX 01 00:00:00
  TRACK 04 AUDIO
    TITLE "Sentimental Serenade"
    PERFORMER "Tommy Dorsey"
    ISRC GBFHG1800109
    INDEX 00 02:45:36
FILE "04 - Sentimental Serenade.wav" WAVE
    INDEX 01 00:00:00
  TRACK 05 AUDIO
    TITLE "Juba Dance"
    PERFORMER "Tommy Dorsey"
    ISRC GBFHG1800110
    INDEX 00 03:01:10
FILE "05 - Juba Dance.wav" WAVE
    INDEX 01 00:00:00
  TRACK 06 AUDIO
    TITLE "Tenderly"
    PERFORMER "Tommy Dorsey"
    ISRC GBFHG1800111
    INDEX 00 02:12:52
FILE "06 - Tenderly.wav" WAVE
    INDEX 01 00:00:00
  TRACK 07 AUDIO
    TITLE "If There Is Someone Lovelier Than You"
    PERFORMER "Tommy Dorsey"
    ISRC GBFHG1800112
    INDEX 00 02:20:26
FILE "07 - If There Is Someone Lovelier Than You.wav" WAVE
    INDEX 01 00:00:00
  TRACK 08 AUDIO
    TITLE "Only a Moment Ago"
    PERFORMER "Tommy Dorsey"
    ISRC GBFHG1800113
    INDEX 00 02:35:16
FILE "08 - Only a Moment Ago.wav" WAVE
    INDEX 01 00:00:00
  TRACK 09 AUDIO
    TITLE "No So Spanish Please"
    PERFORMER "Tommy Dorsey"
    ISRC GBFHG1800114
    INDEX 00 03:20:61
FILE "09 - No So Spanish Please.wav" WAVE
    INDEX 01 00:00:00
  TRACK 10 AUDIO
    TITLE "Body and Soul"
    PERFORMER "Tommy Dorsey"
    ISRC GBFHG1800115
    INDEX 00 03:09:02
FILE "10 - Body and Soul.wav" WAVE
    INDEX 01 00:00:00
  TRACK 11 AUDIO
    TITLE "Sentimental and Melancholy"
    PERFORMER "Tommy Dorsey"
    ISRC GBFHG1800116
    INDEX 00 03:30:74
FILE "11 - Sentimental and Melancholy.wav" WAVE
    INDEX 01 00:00:00
  TRACK 12 AUDIO
    TITLE "I Wonder Who's Kissing Her Now"
    PERFORMER "Tommy Dorsey"
    ISRC GBFHG1800117
    INDEX 00 02:32:18
FILE "12 - I Wonder Who's Kissing Her Now.wav" WAVE
    INDEX 01 00:00:00
  TRACK 13 AUDIO
    TITLE "(I Love You) For Sentimental Reasons"
    PERFORMER "Tommy Dorsey"
    ISRC GBFHG1800118
    INDEX 00 02:17:51
FILE "13 - (I Love You) For Sentimental Reasons.wav" WAVE
    INDEX 01 00:00:00
  TRACK 14 AUDIO
    TITLE "The Honeydripper"
    PERFORMER "Tommy Dorsey"
    ISRC GBFHG1800119
    INDEX 00 02:58:68
FILE "14 - The Honeydripper.wav" WAVE
    INDEX 01 00:00:00
  TRACK 15 AUDIO
    TITLE "Keel Row"
    PERFORMER "Tommy Dorsey"
    ISRC GBFHG1800120
    INDEX 00 02:53:26
FILE "15 - Keel Row.wav" WAVE
    INDEX 01 00:00:00
  TRACK 16 AUDIO
    TITLE "Diane"
    PERFORMER "Tommy Dorsey"
    ISRC GBFHG1800121
    INDEX 00 03:17:68
FILE "16 - Diane.wav" WAVE
    INDEX 01 00:00:00
  TRACK 17 AUDIO
    TITLE "Ritual Fire Dance"
    PERFORMER "Tommy Dorsey"
    ISRC GBFHG1800122
    INDEX 00 03:21:30
FILE "17 - Ritual Fire Dance.wav" WAVE
    INDEX 01 00:00:00
  TRACK 18 AUDIO
    TITLE "You're the One"
    PERFORMER "Tommy Dorsey"
    ISRC GBFHG1800123
    INDEX 00 02:14:09
FILE "18 - You're the One.wav" WAVE
    INDEX 01 00:00:00
  TRACK 19 AUDIO
    TITLE "Alone Together"
    PERFORMER "Tommy Dorsey"
    ISRC GBFHG1800124
    INDEX 00 03:11:33
FILE "19 - Alone Together.wav" WAVE
    INDEX 01 00:00:00
  TRACK 20 AUDIO
    TITLE "Lullaby of Broadway"
    PERFORMER "Tommy Dorsey"
    ISRC GBFHG1800125
    INDEX 00 02:59:30
FILE "20 - Lullaby of Broadway.wav" WAVE
    INDEX 01 00:00:00
  TRACK 21 AUDIO
    TITLE "Blue and Sentimental"
    PERFORMER "Tommy Dorsey"
    ISRC GBFHG1800126
    INDEX 00 03:02:18
FILE "21 - Blue and Sentimental.wav" WAVE
    INDEX 01 00:00:00
  TRACK 22 AUDIO
    TITLE "My Love"
    PERFORMER "Tommy Dorsey"
    ISRC GBFHG1800127
    INDEX 00 03:05:26
FILE "22 - My Love.wav" WAVE
    INDEX 01 00:00:00
  TRACK 23 AUDIO
    TITLE "Grieg's Grotto"
    PERFORMER "Tommy Dorsey"
    ISRC GBFHG1800128
    INDEX 00 02:26:21
FILE "23 - Grieg's Grotto.wav" WAVE
    INDEX 01 00:00:00
 
CD3 {68:18}

01. Cheek to Cheek (3:07)
02. Sentimental Journey (2:39)
03. You Could Make Me Smile Again (3:09)
04. Something to Remember You By (2:56)
05. This Nearly Was Mine (3:07)
06. Trouble in Mind (2:53)
07. Oh! Look at Me Now (3:24)
08. Dancing in the Dark (2:58)
09. Fruit Cocktail (2:24)
10. Charmaine (1:58)
11. Flower of Dawn (3:23)
12. Sentimental Me and Romantic You (2:43)
13. I See Your Face Before Me (2:45)
14. Marcheta (3:14)
15. Turbans on Parade (2:59)
16. One Kiss (2:36)
17. Liza Jane (3:13)
18. Ecstasy (2:46)
19. Goin' Home (Goin' Home, Goin' Home) (2:52)
20. The Most Beautiful Girl in the World (2:32)
21. T.D.'s Boogie Woogie (3:24)
22. Mr. Freddie Blues (3:09)
23. I'm Gettin' Sentimental over You (with chorus) (2:13)
24. I'm Gettin' Sentimental over You (instrumental) (1:54)

 
Лог создания рипа
Exact Audio Copy V1.3 from 2. September 2016
EAC extraction logfile from 16. December 2018, 20:18
Tommy Dorsey / Tenderly: The Best of the Decca Years
Used drive  : hp PLDS DVDRW  DU8AESH   Adapter: 1  ID: 0
Read mode               : Secure
Utilize accurate stream : Yes
Defeat audio cache      : Yes
Make use of C2 pointers : No
Read offset correction                      : 6
Overread into Lead-In and Lead-Out          : No
Fill up missing offset samples with silence : Yes
Delete leading and trailing silent blocks   : No
Null samples used in CRC calculations       : Yes
Used interface                              : Native Win32 interface for Win NT & 2000
Gap handling                                : Appended to previous track
Used output format              : User Defined Encoder
Selected bitrate                : 1024 kBit/s
Quality                         : High
Add ID3 tag                     : No
Command line compressor         : C:\Program Files (x86)\Exact Audio Copy\Flac\flac.exe
Additional command line options : -8 -V -T "ARTIST=%artist%" -T "TITLE=%title%" -T "ALBUM=%albumtitle%" -T "DATE=%year%" -T "TRACKNUMBER=%tracknr%" -T "GENRE=%genre%" -T "PERFORMER=%albuminterpret%" -T "COMPOSER=%composer%" %haslyrics%--tag-from-file=LYRICS="%lyricsfile%"%haslyrics% -T "ALBUMARTIST=%albumartist%" -T "DISCNUMBER=%cdnumber%" -T "TOTALDISCS=%totalcds%" -T "TOTALTRACKS=%numtracks%" -T "COMMENT=%comment%" %source% -o %dest%
TOC of the extracted CD
     Track |   Start  |  Length  | Start sector | End sector
    ---------------------------------------------------------
        1  |  0:00.00 |  3:07.07 |         0    |    14031
        2  |  3:07.07 |  2:38.50 |     14032    |    25931
        3  |  5:45.57 |  3:09.30 |     25932    |    40136
        4  |  8:55.12 |  2:56.18 |     40137    |    53354
        5  | 11:51.30 |  3:07.15 |     53355    |    67394
        6  | 14:58.45 |  2:53.37 |     67395    |    80406
        7  | 17:52.07 |  3:23.46 |     80407    |    95677
        8  | 21:15.53 |  2:58.18 |     95678    |   109045
        9  | 24:13.71 |  2:23.73 |    109046    |   119843
       10  | 26:37.69 |  1:58.07 |    119844    |   128700
       11  | 28:36.01 |  3:22.61 |    128701    |   143911
       12  | 31:58.62 |  2:42.55 |    143912    |   156116
       13  | 34:41.42 |  2:45.36 |    156117    |   168527
       14  | 37:27.03 |  3:14.16 |    168528    |   183093
       15  | 40:41.19 |  2:58.53 |    183094    |   196496
       16  | 43:39.72 |  2:35.70 |    196497    |   208191
       17  | 46:15.67 |  3:12.69 |    208192    |   222660
       18  | 49:28.61 |  2:46.22 |    222661    |   235132
       19  | 52:15.08 |  2:51.64 |    235133    |   248021
       20  | 55:06.72 |  2:32.07 |    248022    |   259428
       21  | 57:39.04 |  3:24.05 |    259429    |   274733
       22  | 61:03.09 |  3:08.72 |    274734    |   288905
       23  | 64:12.06 |  2:12.40 |    288906    |   298845
       24  | 66:24.46 |  1:53.61 |    298846    |   307381
Track  1
     Filename D:\Dropbox\EAC\Tommy Dorsey - Tenderly- The Best of the Decca Years (2018) [FLAC]\CD3\01. Cheek to Cheek.wav
     Pre-gap length  0:00:02.00
     Peak level 98.1 %
     Extraction speed 2.8 X
     Track quality 100.0 %
     Test CRC B956CF72
     Copy CRC B956CF72
     Track not present in AccurateRip database
     Copy OK
Track  2
     Filename D:\Dropbox\EAC\Tommy Dorsey - Tenderly- The Best of the Decca Years (2018) [FLAC]\CD3\02. Sentimental Journey.wav
     Pre-gap length  0:00:02.76
     Peak level 93.1 %
     Extraction speed 2.4 X
     Track quality 99.9 %
     Test CRC 418A2A9C
     Copy CRC 418A2A9C
     Track not present in AccurateRip database
     Copy OK
Track  3
     Filename D:\Dropbox\EAC\Tommy Dorsey - Tenderly- The Best of the Decca Years (2018) [FLAC]\CD3\03. You Could Make Me Smile Again.wav
     Pre-gap length  0:00:02.76
     Peak level 93.3 %
     Extraction speed 3.3 X
     Track quality 100.0 %
     Test CRC 378A8029
     Copy CRC 378A8029
     Track not present in AccurateRip database
     Copy OK
Track  4
     Filename D:\Dropbox\EAC\Tommy Dorsey - Tenderly- The Best of the Decca Years (2018) [FLAC]\CD3\04. Something to Remember You By.wav
     Pre-gap length  0:00:02.76
     Peak level 97.3 %
     Extraction speed 3.4 X
     Track quality 100.0 %
     Test CRC 54EBE158
     Copy CRC 54EBE158
     Track not present in AccurateRip database
     Copy OK
Track  5
     Filename D:\Dropbox\EAC\Tommy Dorsey - Tenderly- The Best of the Decca Years (2018) [FLAC]\CD3\05. This Nearly Was Mine.wav
     Pre-gap length  0:00:02.76
     Peak level 99.0 %
     Extraction speed 2.9 X
     Track quality 99.9 %
     Test CRC E88F46B6
     Copy CRC E88F46B6
     Track not present in AccurateRip database
     Copy OK
Track  6
     Filename D:\Dropbox\EAC\Tommy Dorsey - Tenderly- The Best of the Decca Years (2018) [FLAC]\CD3\06. Trouble In Mind.wav
     Pre-gap length  0:00:02.76
     Peak level 97.3 %
     Extraction speed 3.7 X
     Track quality 100.0 %
     Test CRC 50FDB2B5
     Copy CRC 50FDB2B5
     Track not present in AccurateRip database
     Copy OK
Track  7
     Filename D:\Dropbox\EAC\Tommy Dorsey - Tenderly- The Best of the Decca Years (2018) [FLAC]\CD3\07. Oh! Look At Me Now.wav
     Pre-gap length  0:00:02.76
     Peak level 97.8 %
     Extraction speed 3.9 X
     Track quality 100.0 %
     Test CRC E58AB992
     Copy CRC E58AB992
     Track not present in AccurateRip database
     Copy OK
Track  8
     Filename D:\Dropbox\EAC\Tommy Dorsey - Tenderly- The Best of the Decca Years (2018) [FLAC]\CD3\08. Dancing in the Dark.wav
     Pre-gap length  0:00:02.76
     Peak level 98.6 %
     Extraction speed 4.1 X
     Track quality 100.0 %
     Test CRC 5CF14D83
     Copy CRC 5CF14D83
     Track not present in AccurateRip database
     Copy OK
Track  9
     Filename D:\Dropbox\EAC\Tommy Dorsey - Tenderly- The Best of the Decca Years (2018) [FLAC]\CD3\09. Fruit Cocktail.wav
     Pre-gap length  0:00:02.76
     Peak level 95.5 %
     Extraction speed 4.1 X
     Track quality 100.0 %
     Test CRC 24144953
     Copy CRC 24144953
     Track not present in AccurateRip database
     Copy OK
Track 10
     Filename D:\Dropbox\EAC\Tommy Dorsey - Tenderly- The Best of the Decca Years (2018) [FLAC]\CD3\10. Charmaine.wav
     Pre-gap length  0:00:02.76
     Peak level 97.8 %
     Extraction speed 4.0 X
     Track quality 100.0 %
     Test CRC D0A831B0
     Copy CRC D0A831B0
     Track not present in AccurateRip database
     Copy OK
Track 11
     Filename D:\Dropbox\EAC\Tommy Dorsey - Tenderly- The Best of the Decca Years (2018) [FLAC]\CD3\11. Flower of Dawn.wav
     Pre-gap length  0:00:02.76
     Peak level 98.1 %
     Extraction speed 3.8 X
     Track quality 99.9 %
     Test CRC FCF41C46
     Copy CRC FCF41C46
     Track not present in AccurateRip database
     Copy OK
Track 12
     Filename D:\Dropbox\EAC\Tommy Dorsey - Tenderly- The Best of the Decca Years (2018) [FLAC]\CD3\12. Sentimental Me and Romantic You.wav
     Pre-gap length  0:00:02.76
     Peak level 96.3 %
     Extraction speed 4.5 X
     Track quality 100.0 %
     Test CRC 45CA92B7
     Copy CRC 45CA92B7
     Track not present in AccurateRip database
     Copy OK
Track 13
     Filename D:\Dropbox\EAC\Tommy Dorsey - Tenderly- The Best of the Decca Years (2018) [FLAC]\CD3\13. I See Your Face Before Me.wav
     Pre-gap length  0:00:02.76
     Peak level 95.4 %
     Extraction speed 4.7 X
     Track quality 100.0 %
     Test CRC 49A9D180
     Copy CRC 49A9D180
     Track not present in AccurateRip database
     Copy OK
Track 14
     Filename D:\Dropbox\EAC\Tommy Dorsey - Tenderly- The Best of the Decca Years (2018) [FLAC]\CD3\14. Marcheta.wav
     Pre-gap length  0:00:02.76
     Peak level 99.1 %
     Extraction speed 4.0 X
     Track quality 99.9 %
     Test CRC 7B4625AD
     Copy CRC 7B4625AD
     Track not present in AccurateRip database
     Copy OK
Track 15
     Filename D:\Dropbox\EAC\Tommy Dorsey - Tenderly- The Best of the Decca Years (2018) [FLAC]\CD3\15. Turbans on Parade.wav
     Pre-gap length  0:00:02.76
     Peak level 92.3 %
     Extraction speed 5.0 X
     Track quality 100.0 %
     Test CRC 38B666DE
     Copy CRC 38B666DE
     Track not present in AccurateRip database
     Copy OK
Track 16
     Filename D:\Dropbox\EAC\Tommy Dorsey - Tenderly- The Best of the Decca Years (2018) [FLAC]\CD3\16. One Kiss.wav
     Pre-gap length  0:00:02.76
     Peak level 96.0 %
     Extraction speed 4.9 X
     Track quality 100.0 %
     Test CRC C5609E6F
     Copy CRC C5609E6F
     Track not present in AccurateRip database
     Copy OK
Track 17
     Filename D:\Dropbox\EAC\Tommy Dorsey - Tenderly- The Best of the Decca Years (2018) [FLAC]\CD3\17. Liza Jane.wav
     Pre-gap length  0:00:02.76
     Peak level 94.4 %
     Extraction speed 4.3 X
     Track quality 99.9 %
     Test CRC 0DFBFCFE
     Copy CRC 0DFBFCFE
     Track not present in AccurateRip database
     Copy OK
Track 18
     Filename D:\Dropbox\EAC\Tommy Dorsey - Tenderly- The Best of the Decca Years (2018) [FLAC]\CD3\18. Ecstasy.wav
     Pre-gap length  0:00:02.76
     Peak level 91.2 %
     Extraction speed 5.2 X
     Track quality 100.0 %
     Test CRC 93E9C9D7
     Copy CRC 93E9C9D7
     Track not present in AccurateRip database
     Copy OK
Track 19
     Filename D:\Dropbox\EAC\Tommy Dorsey - Tenderly- The Best of the Decca Years (2018) [FLAC]\CD3\19. Goin' Home (Goin' Home, Goin' Home).wav
     Pre-gap length  0:00:02.76
     Peak level 94.5 %
     Extraction speed 5.4 X
     Track quality 100.0 %
     Test CRC D312A434
     Copy CRC D312A434
     Track not present in AccurateRip database
     Copy OK
Track 20
     Filename D:\Dropbox\EAC\Tommy Dorsey - Tenderly- The Best of the Decca Years (2018) [FLAC]\CD3\20. The Most Beautiful Girl in the World.wav
     Pre-gap length  0:00:02.76
     Peak level 99.7 %
     Extraction speed 5.3 X
     Track quality 100.0 %
     Test CRC 4C25236E
     Copy CRC 4C25236E
     Track not present in AccurateRip database
     Copy OK
Track 21
     Filename D:\Dropbox\EAC\Tommy Dorsey - Tenderly- The Best of the Decca Years (2018) [FLAC]\CD3\21. T.D.'s Boogie Woogie.wav
     Pre-gap length  0:00:02.76
     Peak level 93.7 %
     Extraction speed 5.8 X
     Track quality 100.0 %
     Test CRC E6F6E82D
     Copy CRC E6F6E82D
     Track not present in AccurateRip database
     Copy OK
Track 22
     Filename D:\Dropbox\EAC\Tommy Dorsey - Tenderly- The Best of the Decca Years (2018) [FLAC]\CD3\22. Mr. Freddie Blues.wav
     Pre-gap length  0:00:02.76
     Peak level 95.6 %
     Extraction speed 5.7 X
     Track quality 100.0 %
     Test CRC 4D0A8933
     Copy CRC 4D0A8933
     Track not present in AccurateRip database
     Copy OK
Track 23
     Filename D:\Dropbox\EAC\Tommy Dorsey - Tenderly- The Best of the Decca Years (2018) [FLAC]\CD3\23. I'm Gettin' Sentimental Over You (with Chorus).wav
     Pre-gap length  0:00:02.76
     Peak level 76.0 %
     Extraction speed 5.6 X
     Track quality 100.0 %
     Test CRC 74414390
     Copy CRC 74414390
     Track not present in AccurateRip database
     Copy OK
Track 24
     Filename D:\Dropbox\EAC\Tommy Dorsey - Tenderly- The Best of the Decca Years (2018) [FLAC]\CD3\24. I'm Gettin' Sentimental Over You (Instrumental).wav
     Pre-gap length  0:00:02.76
     Peak level 98.0 %
     Extraction speed 5.3 X
     Track quality 100.0 %
     Test CRC D401DBA7
     Copy CRC D401DBA7
     Track not present in AccurateRip database
     Copy OK
None of the tracks are present in the AccurateRip database
No errors occurred
End of status report
---- CUETools DB Plugin V2.1.6
[CTDB TOCID: VteLkkjAjgwdYuDs.CkvgLMERWs-] found
Submit result: VteLkkjAjgwdYuDs.CkvgLMERWs- has been confirmed
Track | CTDB Status
  1   | (1/1) Accurately ripped
  2   | (1/1) Accurately ripped
  3   | (1/1) Accurately ripped
  4   | (1/1) Accurately ripped
  5   | (1/1) Accurately ripped
  6   | (1/1) Accurately ripped
  7   | (1/1) Accurately ripped
  8   | (1/1) Accurately ripped
  9   | (1/1) Accurately ripped
 10   | (1/1) Accurately ripped
 11   | (1/1) Accurately ripped
 12   | (1/1) Accurately ripped
 13   | (1/1) Accurately ripped
 14   | (1/1) Accurately ripped
 15   | (1/1) Accurately ripped
 16   | (1/1) Accurately ripped
 17   | (1/1) Accurately ripped
 18   | (1/1) Accurately ripped
 19   | (1/1) Accurately ripped
 20   | (1/1) Accurately ripped
 21   | (1/1) Accurately ripped
 22   | (1/1) Accurately ripped
 23   | (1/1) Accurately ripped
 24   | (1/1) Accurately ripped
==== Log checksum 6A9D73128691742137D7C7A25529E6FE6E4247802905F737347ED497DE3013F7 ====
 
Содержание индексной карты (.CUE)
REM GENRE Jazz
REM DATE 2018
REM DISCID 72100218
REM COMMENT "ExactAudioCopy v1.3"
PERFORMER "Tommy Dorsey"
TITLE "Tenderly: The Best of the Decca Years CD3"
FILE "01 - Cheek to Cheek.wav" WAVE
  TRACK 01 AUDIO
    TITLE "Cheek to Cheek"
    PERFORMER "Tommy Dorsey"
    ISRC GBFHG1800129
    INDEX 01 00:00:00
  TRACK 02 AUDIO
    TITLE "Sentimental Journey"
    PERFORMER "Tommy Dorsey"
    ISRC GBFHG1800130
    INDEX 00 03:04:25
FILE "02 - Sentimental Journey.wav" WAVE
    INDEX 01 00:00:00
  TRACK 03 AUDIO
    TITLE "You Could Make Me Smile Again"
    PERFORMER "Tommy Dorsey"
    ISRC GBFHG1800131
    INDEX 00 02:35:68
FILE "03 - You Could Make Me Smile Again.wav" WAVE
    INDEX 01 00:00:00
  TRACK 04 AUDIO
    TITLE "Something to Remember You By"
    PERFORMER "Tommy Dorsey"
    ISRC GBFHG1800132
    INDEX 00 03:06:48
FILE "04 - Something to Remember You By.wav" WAVE
    INDEX 01 00:00:00
  TRACK 05 AUDIO
    TITLE "This Nearly Was Mine"
    PERFORMER "Tommy Dorsey"
    ISRC GBFHG1800133
    INDEX 00 02:53:36
FILE "05 - This Nearly Was Mine.wav" WAVE
    INDEX 01 00:00:00
  TRACK 06 AUDIO
    TITLE "Trouble in Mind"
    PERFORMER "Tommy Dorsey"
    ISRC GBFHG1800134
    INDEX 00 03:04:33
FILE "06 - Trouble in Mind.wav" WAVE
    INDEX 01 00:00:00
  TRACK 07 AUDIO
    TITLE "Oh! Look at Me Now"
    PERFORMER "Tommy Dorsey"
    ISRC GBFHG1800135
    INDEX 00 02:50:55
FILE "07 - Oh! Look at Me Now.wav" WAVE
    INDEX 01 00:00:00
  TRACK 08 AUDIO
    TITLE "Dancing in the Dark"
    PERFORMER "Tommy Dorsey"
    ISRC GBFHG1800136
    INDEX 00 03:20:64
FILE "08 - Dancing in the Dark.wav" WAVE
    INDEX 01 00:00:00
  TRACK 09 AUDIO
    TITLE "Fruit Cocktail"
    PERFORMER "Tommy Dorsey"
    ISRC GBFHG1800137
    INDEX 00 02:55:36
FILE "09 - Fruit Cocktail.wav" WAVE
    INDEX 01 00:00:00
  TRACK 10 AUDIO
    TITLE "Charmaine"
    PERFORMER "Tommy Dorsey"
    ISRC GBFHG1800138
    INDEX 00 02:21:16
FILE "10 - Charmaine.wav" WAVE
    INDEX 01 00:00:00
  TRACK 11 AUDIO
    TITLE "Flower of Dawn"
    PERFORMER "Tommy Dorsey"
    ISRC GBFHG1800139
    INDEX 00 01:55:25
FILE "11 - Flower of Dawn.wav" WAVE
    INDEX 01 00:00:00
  TRACK 12 AUDIO
    TITLE "Sentimental Me and Romantic You"
    PERFORMER "Tommy Dorsey"
    ISRC GBFHG1800140
    INDEX 00 03:20:04
FILE "12 - Sentimental Me and Romantic You.wav" WAVE
    INDEX 01 00:00:00
  TRACK 13 AUDIO
    TITLE "I See Your Face Before Me"
    PERFORMER "Tommy Dorsey"
    ISRC GBFHG1800141
    INDEX 00 02:39:73
FILE "13 - I See Your Face Before Me.wav" WAVE
    INDEX 01 00:00:00
  TRACK 14 AUDIO
    TITLE "Marcheta"
    PERFORMER "Tommy Dorsey"
    ISRC GBFHG1800142
    INDEX 00 02:42:54
FILE "14 - Marcheta.wav" WAVE
    INDEX 01 00:00:00
  TRACK 15 AUDIO
    TITLE "Turbans on Parade"
    PERFORMER "Tommy Dorsey"
    ISRC GBFHG1800143
    INDEX 00 03:11:34
FILE "15 - Turbans on Parade.wav" WAVE
    INDEX 01 00:00:00
  TRACK 16 AUDIO
    TITLE "One Kiss"
    PERFORMER "Tommy Dorsey"
    ISRC GBFHG1800144
    INDEX 00 02:55:71
FILE "16 - One Kiss.wav" WAVE
    INDEX 01 00:00:00
  TRACK 17 AUDIO
    TITLE "Liza Jane"
    PERFORMER "Tommy Dorsey"
    ISRC GBFHG1800145
    INDEX 00 02:33:13
FILE "17 - Liza Jane.wav" WAVE
    INDEX 01 00:00:00
  TRACK 18 AUDIO
    TITLE "Ecstasy"
    PERFORMER "Tommy Dorsey"
    ISRC GBFHG1800146
    INDEX 00 03:10:12
FILE "18 - Ecstasy.wav" WAVE
    INDEX 01 00:00:00
  TRACK 19 AUDIO
    TITLE "Goin' Home (Goin' Home, Goin' Home)"
    PERFORMER "Tommy Dorsey"
    ISRC GBFHG1800147
    INDEX 00 02:43:40
FILE "19 - Goin' Home (Goin' Home, Goin' Home).wav" WAVE
    INDEX 01 00:00:00
  TRACK 20 AUDIO
    TITLE "The Most Beautiful Girl in the World"
    PERFORMER "Tommy Dorsey"
    ISRC GBFHG1800148
    INDEX 00 02:49:07
FILE "20 - The Most Beautiful Girl in the World.wav" WAVE
    INDEX 01 00:00:00
  TRACK 21 AUDIO
    TITLE "T.D.'s Boogie Woogie"
    PERFORMER "Tommy Dorsey"
    ISRC GBFHG1800149
    INDEX 00 02:29:25
FILE "21 - T.D.'s Boogie Woogie.wav" WAVE
    INDEX 01 00:00:00
  TRACK 22 AUDIO
    TITLE "Mr. Freddie Blues"
    PERFORMER "Tommy Dorsey"
    ISRC GBFHG1800150
    INDEX 00 03:21:23
FILE "22 - Mr. Freddie Blues.wav" WAVE
    INDEX 01 00:00:00
  TRACK 23 AUDIO
    TITLE "I'm Gettin' Sentimental over You (with chorus)"
    PERFORMER "Tommy Dorsey"
    ISRC GBFHG1800151
    INDEX 00 03:06:15
FILE "23 - I'm Gettin' Sentimental over You (with chorus).wav" WAVE
    INDEX 01 00:00:00
  TRACK 24 AUDIO
    TITLE "I'm Gettin' Sentimental over You (instrumental)"
    PERFORMER "Tommy Dorsey"
    ISRC GBFHG1800248
    INDEX 00 02:09:58
FILE "24 - I'm Gettin' Sentimental over You (instrumental).wav" WAVE
    INDEX 01 00:00:00
Скачивание доступно после регистрации!!
Приватный:
Нет (DHT включён)
Размер:
507.33 Мб (531,969,621 байт) » файлов: 88
Участники:
0 раздают, 0 качают (0 участников всего)
Внешние участники:
--- [ Обновить ]
21:18
58
Нет комментариев. Ваш будет первым!