Поиск

2018 Jose James - Lean on Me {Blue Note 00602567737353} [CD]

2018 Jose James - Lean on Me {Blue Note 00602567737353} [CD]
Битрейт аудио:
lossless
Треклист:

01. Ain't No Sunshine (3:18)
02. Grandma's Hands (4:13)
03. Lovely Day (feat. Lalah Hathaway) (4:17)
04. Lean on Me (5:00)
05. Kissing My Love (5:35)
06. Use Me (4:43)
07. Who Is He (3:45)
08. Hello Like Before (6:29)
09. Just the Two of Us (4:26)
10. Hope She'll Be Happier (4:52)
11. The Same Love That Made Me Laugh (3:21)
12. Better Off Dead (4:50)

Жанр: Vocal Jazz, Blues, Soul
Носитель: CD
Страна-производитель диска (релиза): EU
Год издания: 2018
Издатель (лейбл): Blue Note Records
Номер по каталогу: 00602567737353
Страна исполнителя (группы): США
Аудиокодек: FLAC (*.flac)
Тип рипа: tracks+.cue
Продолжительность: 00:54:49
Источник (релизер): wilderness
Наличие сканов в содержимом раздачи: нет

Лог создания рипа
X Lossless Decoder version 20170729 (150.3)

XLD extraction logfile from 2018-10-25 10:04:03 -0400

Jose James / Lean On Me

Used drive : OPTIARC DVD RW AD-5670S (revision 2AHH)
Media type : Pressed CD

Ripper mode             : XLD Secure Ripper
Disable audio cache     : OK for the drive with a cache less than 1375KiB
Make use of C2 pointers : NO
Read offset correction  : 48
Max retry count         : 100
Gap status              : Analyzed, Appended (except HTOA)

TOC of the extracted CD
     Track |   Start  |  Length  | Start sector | End sector
    ---------------------------------------------------------
        1  | 00:00:00 | 03:17:43 |         0    |    14817
        2  | 03:17:43 | 04:12:59 |     14818    |    33776
        3  | 07:30:27 | 04:16:56 |     33777    |    53032
        4  | 11:47:08 | 04:59:58 |     53033    |    75515
        5  | 16:46:66 | 05:35:36 |     75516    |   100676
        6  | 22:22:27 | 04:43:33 |    100677    |   121934
        7  | 27:05:60 | 03:45:20 |    121935    |   138829
        8  | 30:51:05 | 06:28:44 |    138830    |   167973
        9  | 37:19:49 | 04:26:31 |    167974    |   187954
       10  | 41:46:05 | 04:51:43 |    187955    |   209822
       11  | 46:37:48 | 03:20:61 |    209823    |   224883
       12  | 49:58:34 | 04:49:50 |    224884    |   246608

AccurateRip Summary
    Disc not found in AccurateRip DB.

All Tracks
    Album gain               : -7.28 dB
    Peak                     : 1.000000
    Statistics
        Read error                           : 0
        Jitter error (maybe fixed)           : 0
        Retry sector count                   : 0
        Damaged sector count                 : 0

Track 01
    Filename : /Users/USER_1/Documents/Tunes/Jose James  - Lean On Me (2018) [FLAC]01 Ain't No Sunshine.flac
    Pre-gap length : 00:02:00

    Track gain               : -6.51 dB
    Peak                     : 1.000000
    CRC32 hash (test run)    : 28150E00
    CRC32 hash               : 28150E00
    CRC32 hash (skip zero)   : E006AB4D
    AccurateRip v1 signature : B667025A
    AccurateRip v2 signature : 687A2929
        ->Track not present in AccurateRip database.
    Statistics
        Read error                           : 0
        Jitter error (maybe fixed)           : 0
        Retry sector count                   : 0
        Damaged sector count                 : 0

Track 02
    Filename : /Users/USER_1/Documents/Tunes/Jose James  - Lean On Me (2018) [FLAC]02 Grandma's Hands.flac
    Pre-gap length : 00:02:00

    Track gain               : -7.20 dB
    Peak                     : 1.000000
    CRC32 hash (test run)    : 79B27683
    CRC32 hash               : 79B27683
    CRC32 hash (skip zero)   : 103E8F7E
    AccurateRip v1 signature : AC96A0FC
    AccurateRip v2 signature : 648122F8
        ->Track not present in AccurateRip database.
    Statistics
        Read error                           : 0
        Jitter error (maybe fixed)           : 0
        Retry sector count                   : 0
        Damaged sector count                 : 0

Track 03
    Filename : /Users/USER_1/Documents/Tunes/Jose James  - Lean On Me (2018) [FLAC]03 Lovely Day (feat. Lalah Hathaway).flac
    Pre-gap length : 00:02:00

    Track gain               : -6.47 dB
    Peak                     : 0.999023
    CRC32 hash (test run)    : 7BE0C51D
    CRC32 hash               : 7BE0C51D
    CRC32 hash (skip zero)   : 6B12AFE4
    AccurateRip v1 signature : B7591152
    AccurateRip v2 signature : A5C55CD1
        ->Track not present in AccurateRip database.
    Statistics
        Read error                           : 0
        Jitter error (maybe fixed)           : 0
        Retry sector count                   : 0
        Damaged sector count                 : 0

Track 04
    Filename : /Users/USER_1/Documents/Tunes/Jose James  - Lean On Me (2018) [FLAC]04 Lean On Me.flac
    Pre-gap length : 00:02:00

    Track gain               : -7.29 dB
    Peak                     : 0.988129
    CRC32 hash (test run)    : 04D3267F
    CRC32 hash               : 04D3267F
    CRC32 hash (skip zero)   : D5E92186
    AccurateRip v1 signature : 3EDC839B
    AccurateRip v2 signature : 49C2CD57
        ->Track not present in AccurateRip database.
    Statistics
        Read error                           : 0
        Jitter error (maybe fixed)           : 0
        Retry sector count                   : 0
        Damaged sector count                 : 0

Track 05
    Filename : /Users/USER_1/Documents/Tunes/Jose James  - Lean On Me (2018) [FLAC]05 Kissing My Love.flac
    Pre-gap length : 00:02:00

    Track gain               : -7.51 dB
    Peak                     : 1.000000
    CRC32 hash (test run)    : 76F6785E
    CRC32 hash               : 76F6785E
    CRC32 hash (skip zero)   : 8DE2584B
    AccurateRip v1 signature : 11C32FB3
    AccurateRip v2 signature : E0C4D694
        ->Track not present in AccurateRip database.
    Statistics
        Read error                           : 0
        Jitter error (maybe fixed)           : 0
        Retry sector count                   : 0
        Damaged sector count                 : 0

Track 06
    Filename : /Users/USER_1/Documents/Tunes/Jose James  - Lean On Me (2018) [FLAC]06 Use Me.flac
    Pre-gap length : 00:02:00

    Track gain               : -7.49 dB
    Peak                     : 1.000000
    CRC32 hash (test run)    : 381161CD
    CRC32 hash               : 381161CD
    CRC32 hash (skip zero)   : F46857E7
    AccurateRip v1 signature : 88AE4CAB
    AccurateRip v2 signature : 5D4325B7
        ->Track not present in AccurateRip database.
    Statistics
        Read error                           : 0
        Jitter error (maybe fixed)           : 0
        Retry sector count                   : 0
        Damaged sector count                 : 0

Track 07
    Filename : /Users/USER_1/Documents/Tunes/Jose James  - Lean On Me (2018) [FLAC]07 Who Is He.flac
    Pre-gap length : 00:02:00

    Track gain               : -8.47 dB
    Peak                     : 1.000000
    CRC32 hash (test run)    : C00156F9
    CRC32 hash               : C00156F9
    CRC32 hash (skip zero)   : 06887171
    AccurateRip v1 signature : 3F1395B5
    AccurateRip v2 signature : D5637613
        ->Track not present in AccurateRip database.
    Statistics
        Read error                           : 0
        Jitter error (maybe fixed)           : 0
        Retry sector count                   : 0
        Damaged sector count                 : 0

Track 08
    Filename : /Users/USER_1/Documents/Tunes/Jose James  - Lean On Me (2018) [FLAC]08 Hello Like Before.flac
    Pre-gap length : 00:02:00

    Track gain               : -4.91 dB
    Peak                     : 0.991486
    CRC32 hash (test run)    : 7D81FA64
    CRC32 hash               : 7D81FA64
    CRC32 hash (skip zero)   : B9AED3B7
    AccurateRip v1 signature : F5033CE5
    AccurateRip v2 signature : 218CFF39
        ->Track not present in AccurateRip database.
    Statistics
        Read error                           : 0
        Jitter error (maybe fixed)           : 0
        Retry sector count                   : 0
        Damaged sector count                 : 0

Track 09
    Filename : /Users/USER_1/Documents/Tunes/Jose James  - Lean On Me (2018) [FLAC]09 Just The Two Of Us.flac
    Pre-gap length : 00:02:00

    Track gain               : -4.65 dB
    Peak                     : 1.000000
    CRC32 hash (test run)    : BACEA5E0
    CRC32 hash               : BACEA5E0
    CRC32 hash (skip zero)   : 31840FDF
    AccurateRip v1 signature : 672B9E1A
    AccurateRip v2 signature : D932CF06
        ->Track not present in AccurateRip database.
    Statistics
        Read error                           : 0
        Jitter error (maybe fixed)           : 0
        Retry sector count                   : 0
        Damaged sector count                 : 0

Track 10
    Filename : /Users/USER_1/Documents/Tunes/Jose James  - Lean On Me (2018) [FLAC]10 Hope She'll Be Happier.flac
    Pre-gap length : 00:02:00

    Track gain               : -9.01 dB
    Peak                     : 0.989594
    CRC32 hash (test run)    : 5D8194E8
    CRC32 hash               : 5D8194E8
    CRC32 hash (skip zero)   : 182E17D7
    AccurateRip v1 signature : 50A9A6BE
    AccurateRip v2 signature : 2655599F
        ->Track not present in AccurateRip database.
    Statistics
        Read error                           : 0
        Jitter error (maybe fixed)           : 0
        Retry sector count                   : 0
        Damaged sector count                 : 0

Track 11
    Filename : /Users/USER_1/Documents/Tunes/Jose James  - Lean On Me (2018) [FLAC]11 The Same Love That Made Me Laugh.flac
    Pre-gap length : 00:02:00

    Track gain               : -5.58 dB
    Peak                     : 0.999969
    CRC32 hash (test run)    : E4CABF14
    CRC32 hash               : E4CABF14
    CRC32 hash (skip zero)   : 69FFAA62
    AccurateRip v1 signature : ADE5743C
    AccurateRip v2 signature : 3C174BD1
        ->Track not present in AccurateRip database.
    Statistics
        Read error                           : 0
        Jitter error (maybe fixed)           : 0
        Retry sector count                   : 0
        Damaged sector count                 : 0

Track 12
    Filename : /Users/USER_1/Documents/Tunes/Jose James  - Lean On Me (2018) [FLAC]12 Better Off Dead.flac
    Pre-gap length : 00:02:00

    Track gain               : -7.93 dB
    Peak                     : 0.995453
    CRC32 hash (test run)    : 9868652C
    CRC32 hash               : 9868652C
    CRC32 hash (skip zero)   : EAB36D4F
    AccurateRip v1 signature : 356D63A5
    AccurateRip v2 signature : BAFB7508
        ->Track not present in AccurateRip database.
    Statistics
        Read error                           : 0
        Jitter error (maybe fixed)           : 0
        Retry sector count                   : 0
        Damaged sector count                 : 0

No errors occurred

End of status report

-----BEGIN XLD SIGNATURE-----
egtDu2iY9Z.584332d11aMTvEKiAg_fCL46_0jiFayjw_vbldFsLOrN2ORxud8iBR9geTsMoY7eGMnPvmGYattTVhXiwrJ_tr66IWiC
-----END XLD SIGNATURE-----
Содержание индексной карты (.CUE)
TITLE "Lean on Me"
PERFORMER "Jose James"
CATALOG 0602567737353
REM GENRE "Jazz"
REM DATE "2018"
REM DISCID 9C0CD80C
REM REPLAYGAIN_ALBUM_GAIN -7.28 dB
REM REPLAYGAIN_ALBUM_PEAK 1.000000
FILE "01 - Ain't No Sunshine.flac" WAVE
  TRACK 01 AUDIO
    TITLE "Ain't No Sunshine"
    ISRC USUM71807952
    REM REPLAYGAIN_TRACK_GAIN -6.51 dB
    REM REPLAYGAIN_TRACK_PEAK 1.000000
    INDEX 01 00:00:00
  TRACK 02 AUDIO
    TITLE "Grandma's Hands"
    ISRC USUM71807950
    REM REPLAYGAIN_TRACK_GAIN -7.20 dB
    REM REPLAYGAIN_TRACK_PEAK 1.000000
    INDEX 00 03:15:43
FILE "02 - Grandma's Hands.flac" WAVE
    INDEX 01 00:00:00
  TRACK 03 AUDIO
    TITLE "Lovely Day (feat. Lalah Hathaway)"
    ISRC USUM71807957
    REM REPLAYGAIN_TRACK_GAIN -6.47 dB
    REM REPLAYGAIN_TRACK_PEAK 0.999023
    INDEX 00 04:10:59
FILE "03 - Lovely Day (feat. Lalah Hathaway).flac" WAVE
    INDEX 01 00:00:00
  TRACK 04 AUDIO
    TITLE "Lean on Me"
    ISRC USUM71807956
    REM REPLAYGAIN_TRACK_GAIN -7.29 dB
    REM REPLAYGAIN_TRACK_PEAK 0.988129
    INDEX 00 04:14:56
FILE "04 - Lean on Me.flac" WAVE
    INDEX 01 00:00:00
  TRACK 05 AUDIO
    TITLE "Kissing My Love"
    ISRC USUM71807955
    REM REPLAYGAIN_TRACK_GAIN -7.51 dB
    REM REPLAYGAIN_TRACK_PEAK 1.000000
    INDEX 00 04:57:58
FILE "05 - Kissing My Love.flac" WAVE
    INDEX 01 00:00:00
  TRACK 06 AUDIO
    TITLE "Use Me"
    ISRC USUM71807959
    REM REPLAYGAIN_TRACK_GAIN -7.49 dB
    REM REPLAYGAIN_TRACK_PEAK 1.000000
    INDEX 00 05:33:36
FILE "06 - Use Me.flac" WAVE
    INDEX 01 00:00:00
  TRACK 07 AUDIO
    TITLE "Who Is He"
    ISRC USUM71807960
    REM REPLAYGAIN_TRACK_GAIN -8.47 dB
    REM REPLAYGAIN_TRACK_PEAK 1.000000
    INDEX 00 04:41:33
FILE "07 - Who Is He.flac" WAVE
    INDEX 01 00:00:00
  TRACK 08 AUDIO
    TITLE "Hello Like Before"
    ISRC USUM71807949
    REM REPLAYGAIN_TRACK_GAIN -4.91 dB
    REM REPLAYGAIN_TRACK_PEAK 0.991486
    INDEX 00 03:43:20
FILE "08 - Hello Like Before.flac" WAVE
    INDEX 01 00:00:00
  TRACK 09 AUDIO
    TITLE "Just the Two of Us"
    ISRC USUM71807954
    REM REPLAYGAIN_TRACK_GAIN -4.65 dB
    REM REPLAYGAIN_TRACK_PEAK 1.000000
    INDEX 00 06:26:44
FILE "09 - Just the Two of Us.flac" WAVE
    INDEX 01 00:00:00
  TRACK 10 AUDIO
    TITLE "Hope She'll Be Happier"
    ISRC USUM71807951
    REM REPLAYGAIN_TRACK_GAIN -9.01 dB
    REM REPLAYGAIN_TRACK_PEAK 0.989594
    INDEX 00 04:24:31
FILE "10 - Hope She'll Be Happier.flac" WAVE
    INDEX 01 00:00:00
  TRACK 11 AUDIO
    TITLE "The Same Love That Made Me Laugh"
    ISRC USUM71807958
    REM REPLAYGAIN_TRACK_GAIN -5.58 dB
    REM REPLAYGAIN_TRACK_PEAK 0.999969
    INDEX 00 04:49:43
FILE "11 - The Same Love That Made Me Laugh.flac" WAVE
    INDEX 01 00:00:00
  TRACK 12 AUDIO
    TITLE "Better Off Dead"
    ISRC USUM71807953
    REM REPLAYGAIN_TRACK_GAIN -7.93 dB
    REM REPLAYGAIN_TRACK_PEAK 0.995453
    INDEX 00 03:18:61
FILE "12 - Better Off Dead.flac" WAVE
    INDEX 01 00:00:00
Лог проверки качества
[CUETools log; Date: 30.12.2018 4:28:07; Version: 2.1.6]
[CTDB TOCID: Jl1NykJ7EzvZFRzZooaH0Qfyex8-] found.
Track | CTDB Status
  1   | (48/48) Accurately ripped
  2   | (48/48) Accurately ripped
  3   | (48/48) Accurately ripped
  4   | (48/48) Accurately ripped
  5   | (48/48) Accurately ripped
  6   | (48/48) Accurately ripped
  7   | (48/48) Accurately ripped
  8   | (48/48) Accurately ripped
  9   | (48/48) Accurately ripped
 10   | (48/48) Accurately ripped
 11   | (48/48) Accurately ripped
 12   | (48/48) Accurately ripped
[AccurateRip ID: 00180b97-00e33f15-9c0cd80c] found.
Track   [  CRC   |   V2   ] Status
 01     [b667025a|687a2929] (0+3/3) Accurately ripped
 02     [ac96a0fc|648122f8] (0+3/3) Accurately ripped
 03     [b7591152|a5c55cd1] (0+3/3) Accurately ripped
 04     [3edc839b|49c2cd57] (0+3/3) Accurately ripped
 05     [11c32fb3|e0c4d694] (0+3/3) Accurately ripped
 06     [88ae4cab|5d4325b7] (0+3/3) Accurately ripped
 07     [3f1395b5|d5637613] (0+3/3) Accurately ripped
 08     [f5033ce5|218cff39] (0+3/3) Accurately ripped
 09     [672b9e1a|d932cf06] (0+3/3) Accurately ripped
 10     [50a9a6be|2655599f] (0+3/3) Accurately ripped
 11     [ade5743c|3c174bd1] (0+3/3) Accurately ripped
 12     [356d63a5|bafb7508] (0+3/3) Accurately ripped

Track Peak [ CRC32  ] [W/O NULL]
 --  100,0 [372CDD82] [7496C6D9]
 01  100,0 [28150E00] [E006AB4D]
 02  100,0 [79B27683] [103E8F7E]
 03   99,9 [7BE0C51D] [6B12AFE4]
 04   98,8 [04D3267F] [D5E92186]
 05  100,0 [76F6785E] [8DE2584B]
 06  100,0 [381161CD] [F46857E7]
 07  100,0 [C00156F9] [06887171]
 08   99,1 [7D81FA64] [B9AED3B7]
 09  100,0 [BACEA5E0] [31840FDF]
 10   98,9 [5D8194E8] [182E17D7]
 11  100,0 [E4CABF14] [69FFAA62]
 12   99,5 [9868652C] [EAB36D4F]
Скачивание доступно после регистрации!!
Приватный:
Нет (DHT включён)
Размер:
316.68 Мб (332,064,802 байт) » файлов: 19
Участники:
0 раздают, 0 качают (0 участников всего)
Внешние участники:
--- [ Обновить ]
14:31
57
Нет комментариев. Ваш будет первым!