Поиск

2016 Camille Bertault - En Vie {Sunnyside} [24-88.2]

2016 Camille Bertault - En Vie {Sunnyside} [24-88.2]
Издатель (лейбл):
Номер по каталогу:
SSC 1438
Носитель:
WEB
Формат:
PCM
Тип рипа:
tracks
Контейнер:
FLAC (*.flac)
Количество каналов:
2.0
Разрядность/ЧД:
24/88,2
Битрейт аудио:
lossless
Время звучания:
00:48:32
Наличие сканов:
только обложка
Страна-производитель диска (релиза):
France
Релизёр (источник):
M0p94ok
Доп. инфо:

Должен вам сказать, из всех типов альбомов, которые будоражат моё воображение, ни один не делает это лучше, чем диски женских джазовых вокалисток. Какие? Еще один?!? ПОЖАЛУЙСТА!!!
Какое облегчение найти вокалиста, который звучит свежо, лирично и может предложить что-то новое помимо Стандартного собрания стандартов. 
У Камиллы Берто очаровательная носовая подача, и она использует это с большим преимуществом с гибкой и подвижной командой Оливера Хатмана (клавиши), Гильдаса Бокле (бас) и Антуана Паганотти (ударные) в сочетании оригиналов и умной переработкой джазовых хитов. О последнем она мечтает с Боклом в «Infant Eyes» Уэйна Шортера и переходит от учтивости к свингу, когда она вокализирует и скрежещет в «Peacocks» Джимми Роулза. Она показывает своё понимание бопа в «Empty Pockets» Херби Хэнкока, в то время как «Prelude To A Kiss» Эллингтона - одинокая и прекрасная. В заглавной пьесе Хатман исполняет модный небольшой клавишный рифф, в то время как Берто плетёт свои кружева, в то время как ее широкий диапазон материалов, таких как «Course» и энергичный «Double Face», столь же легок, сколь и впечатляет. Она прекрасно борется на руках с Пагонитти в «Tatie Cardy», и прежде чем закрыть альбом, исполняет нежную «Satiesque». Она звучит расслабленно, смешивая намеки на кабаре, чассон и богемию, но всегда с авторитетным количеством джазовых нот, которые смешивают слова и бессловесный вокал, как части богатого текстурированного соуса. Браво!

Лог проверки качества
foobar2000 1.3.16 / Dynamic Range Meter 1.1.1
log date: 2019-06-06 22:00:50

--------------------------------------------------------------------------------
Analyzed: Camille Bertault / En Vie
--------------------------------------------------------------------------------

DR         Peak         RMS     Duration Track
--------------------------------------------------------------------------------
DR10      -0.50 dB   -12.26 dB      2:53 01-Quoi de plus anodin (Empty Pockets)
DR9       -0.50 dB   -11.60 dB      4:09 02-Course
DR11      -0.79 dB   -15.74 dB      6:09 03-Enfant (Infant Eyes)
DR10      -0.50 dB   -12.48 dB      3:55 04-En Vie
DR10      -0.50 dB   -12.24 dB      8:22 05-Cette nuit (The Peacocks)
DR10      -0.50 dB   -14.16 dB      4:28 06-A la mer tume
DR10      -0.50 dB   -12.26 dB      4:19 07-Double face
DR9       -0.50 dB   -12.01 dB      2:53 08-Tatie Cardy
DR11      -0.91 dB   -15.61 dB      5:44 09-Prelude (Prelude to a Kiss)
DR9       -0.50 dB   -12.30 dB      5:40 10-Satiesque
--------------------------------------------------------------------------------

Number of tracks:  10
Official DR value: DR10

Samplerate:        88200 Hz
Channels:          2
Bits per sample:   24
Bitrate:           1456 kbps
Codec:             FLAC
================================================================================
No seeders - write personal message to M0p94ok. Any questions - support@pro-jazz.com.
Нет сидеров - пишите в личку M0p94ok. Есть вопросы - support@pro-jazz.com
09:40
107
Нет комментариев. Ваш будет первым!