Поиск

2021 Pat Metheny - Road to the Sun {Modern Recordings} [24-96]

2021 Pat Metheny - Road to the Sun {Modern Recordings} [24-96]
Стили:
Битрейт аудио:
lossless

Треклист:

01. Pat Metheny: Four Paths of Light, Pt. 1 - Jason Vieaux  04:14
02. Pat Metheny: Four Paths of Light, Pt. 2 - Jason Vieaux  06:21
03. Pat Metheny: Four Paths of Light, Pt. 3 - Jason Vieaux  05:30
04. Pat Metheny: Four Paths of Light, Pt. 4 - Jason Vieaux  03:10
05. Pat Metheny: Road to the Sun, Pt. 1 - Los Angeles Guitar Quartet  04:22
06. Pat Metheny: Road to the Sun, Pt. 2 - Los Angeles Guitar Quartet  06:45
07. Pat Metheny: Road to the Sun, Pt. 3 - Los Angeles Guitar Quartet  03:29
08. Pat Metheny: Road to the Sun, Pt. 4 - Los Angeles Guitar Quartet  04:05
09. Pat Metheny: Road to the Sun, Pt. 5 - Los Angeles Guitar Quartet  06:44
10. Pat Metheny: Road to the Sun, Pt. 6 - Los Angeles Guitar Quartet  03:23
11. Arvo Pärt: Für Alina (arr. Pat Metheny for 42 string guitar)  08:30

Доп. инфо:

Формат записи/Источник записи: [TR24][OF]
Наличие водяных знаков: Нет
Год издания: 2021Издатель (лейбл): Modern Recordings
Продолжительность: 00:56:33
Наличие сканов в содержимом раздачи: Только обложка альбома
Контейнер: FLAC (*.flac)
Тип рипа: tracks
Разрядность: 24/96
Формат: PCM
Количество каналов: 2.0
Источник (релизер): highresaudio.com

Лог проверки качества
foobar2000 1.4.8 / Dynamic Range Meter 1.1.1
log date: 2021-03-05 12:10:39

--------------------------------------------------------------------------------
Analyzed: Pat Metheny / Road to the Sun
--------------------------------------------------------------------------------

DR         Peak         RMS     Duration Track
--------------------------------------------------------------------------------
DR10      -1.00 dB   -13.62 dB      4:15 01-Four Paths of Light, Pt. 1
DR13      -1.00 dB   -17.57 dB      6:22 02-Four Paths of Light, Pt. 2
DR12      -1.00 dB   -15.60 dB      5:30 03-Four Paths of Light, Pt. 3
DR12      -2.76 dB   -20.08 dB      3:11 04-Four Paths of Light, Pt. 4
DR12      -1.00 dB   -16.35 dB      4:22 05-Road to the Sun, Pt. 1
DR11      -1.00 dB   -16.28 dB      6:45 06-Road to the Sun, Pt. 2
DR13      -1.00 dB   -18.41 dB      3:29 07-Road to the Sun, Pt. 3
DR13      -1.00 dB   -18.95 dB      4:06 08-Road to the Sun, Pt. 4
DR10      -1.00 dB   -14.70 dB      6:45 09-Road to the Sun, Pt. 5
DR12      -1.00 dB   -18.84 dB      3:24 10-Road to the Sun, Pt. 6
DR14      -4.25 dB   -24.22 dB      8:31 11-Für Alina  (arr. by Pat Metheny for 42-string guitar)
--------------------------------------------------------------------------------

Number of tracks:  11
Official DR value: DR12
Samplerate:        96000 Hz
Channels:          2
Bits per sample:   24
Bitrate:           1893 kbps
Codec:             FLAC
================================================================================
Приватный:
Нет (DHT включён)
Размер:
850.17 Мб (891,468,074 байт) » файлов: 13
Участники:
0 раздают, 0 качают (0 участников всего)
Внешние участники:
34 раздают, 11 качают (45 участников всего) [ Обновить ]
No seeders - write personal message to M0p94ok. Нет сидеров - пишите в личку M0p94ok.
23:26
58
Нет комментариев. Ваш будет первым!