Поиск

1958 Chet Baker - In New York (2021) {Craft} [24-192]

1958 Chet Baker - In New York (2021) {Craft} [24-192]
Издатель (лейбл):
Битрейт аудио:
lossless
Доп. инфо:

Формат записи/Источник записи: [TR24][OF]
Наличие водяных знаков: Нет
Год издания: 2021
Издатель (лейбл): Craft Recordings
Продолжительность: 00:44:57
Наличие сканов в содержимом раздачи: Только обложка альбома
Контейнер: FLAC (*.flac)
Тип рипа: tracks
Разрядность: 24/192
Формат: PCM
Количество каналов: 2.0
Источник (релизер): prestomusic.com

Лог проверки качества
foobar2000 1.4.8 / Dynamic Range Meter 1.1.1
log date: 2021-03-05 14:42:41

--------------------------------------------------------------------------------
Analyzed: Chet Baker / In New York
--------------------------------------------------------------------------------

DR         Peak         RMS     Duration Track
--------------------------------------------------------------------------------
DR11      -0.50 dB   -14.31 dB      6:58 01-Fair Weather
DR11      -0.50 dB   -15.25 dB      7:57 02-Polka Dots And Moonbeams
DR11      -0.50 dB   -14.18 dB      9:48 03-Hotel 49
DR11      -0.50 dB   -13.96 dB      5:52 04-Solar
DR10      -0.50 dB   -13.90 dB      7:34 05-Blue Thoughts
DR11      -0.50 dB   -13.54 dB      6:49 06-When Lights Are Low
--------------------------------------------------------------------------------

Number of tracks:  6
Official DR value: DR11
Samplerate:        192000 Hz
Channels:          2
Bits per sample:   24
Bitrate:           6088 kbps
Codec:             FLAC
================================================================================
No seeders - write personal message to M0p94ok. Any questions - support@pro-jazz.com.
Нет сидеров - пишите в личку M0p94ok. Есть вопросы - support@pro-jazz.com
12:22
96
Нет комментариев. Ваш будет первым!