Поиск

2015 Guy Klucevsek - Accordion Time Voyage {Winter & Winter} [24-44,1]

2015 Guy Klucevsek - Accordion Time Voyage {Winter & Winter} [24-44,1]
Номер по каталогу:
910 230-2
Носитель:
WEB
Формат:
PCM
Тип рипа:
tracks+.cue
Количество каналов:
2.0
Разрядность/ЧД:
24/44,1
Битрейт аудио:
lossless
Наличие сканов:
web
Страна-производитель диска (релиза):
Germany
Релизёр (источник):
M0p94ok
Лог проверки качества
foobar2000 1.3.16 / Dynamic Range Meter 1.1.1
log date: 2019-03-13 17:35:40

--------------------------------------------------------------------------------
Analyzed: Brave Old World / Accordion Time Voyage (1)
          Dave Douglas / Accordion Time Voyage (2)
          Fumio Yasuda / Accordion Time Voyage (3-4)
          Guy Klucevsek / Accordion Time Voyage (5-7)
          Stian Carstensen / Accordion Time Voyage (8)
          Teodoro Anzellotti / Accordion Time Voyage (9-14)
          Uri Caine Ensemble / Accordion Time Voyage (15)
--------------------------------------------------------------------------------

DR         Peak         RMS     Duration Track
--------------------------------------------------------------------------------
DR14      -0.80 dB   -20.01 dB      2:27 11-Kuyavyak
DR11      -0.80 dB   -15.02 dB      7:38 02-Charms of the Night Sky
DR12      -0.80 dB   -15.23 dB      3:47 08-Tango for November
DR13      -0.80 dB   -19.28 dB     10:53 13-Accordion Concerto (Last Choral)
DR13      -0.80 dB   -15.84 dB      3:41 01-Life, Liberty and the Prociutto Happiness
DR11      -0.95 dB   -17.98 dB      5:31 05-The Gift (Dedicated to Jerome Kitzke)
DR11      -6.96 dB   -22.66 dB      0:53 15-Lament for the Accordion Maker
DR11      -0.80 dB   -13.47 dB      5:51 12-New Smeseno
DR10      -6.40 dB   -20.57 dB      1:34 03-The Goldberg Variations BWV 988 (Variatio 18. Canone Alla Sexta. A I Clav.)
DR13      -4.77 dB   -20.58 dB      1:52 04-The Goldberg Variations BWV 988 (Variatio 20. A 2 Clav.)
DR13      -1.10 dB   -16.58 dB      2:56 06-Keyboard Sonata in B-Flat Major: K. 545 (Prestissimo)
DR14      -0.80 dB   -20.16 dB      4:04 07-On an Overgrown Path, 1st Series: Our Evenings (Moderato)
DR11      -6.52 dB   -22.26 dB      3:40 09-3 Gymnopédies (1 Lent Et Douloureux)
DR9       -7.35 dB   -21.42 dB      1:49 10-Petite Ouverture À Danser
DR13      -0.82 dB   -18.62 dB     10:27 14-Tannhäuser Overture
--------------------------------------------------------------------------------

Number of tracks:  15
Official DR value: DR12

Samplerate:        44100 Hz
Channels:          2
Bits per sample:   24
Bitrate:           1422 kbps
Codec:             FLAC
================================================================================
No seeders - write personal message to M0p94ok. Any questions - support@pro-jazz.com.
Нет сидеров - пишите в личку M0p94ok. Есть вопросы - support@pro-jazz.com
18:41
191
Нет комментариев. Ваш будет первым!