Поиск

2014 Fumio Yasuda - Fractured Silence {Winter & Winter} [24-88,2]

2014 Fumio Yasuda - Fractured Silence {Winter & Winter}  [24-88,2]
Носитель:
WEB
Формат:
PCM
Тип рипа:
tracks+.cue
Количество каналов:
2.0
Разрядность/ЧД:
24/88,2
Битрейт аудио:
lossless
Наличие сканов:
web
Релизёр (источник):
M0p94ok
Лог проверки качества
foobar2000 1.3.16 / Dynamic Range Meter 1.1.1
log date: 2019-03-13 17:35:04

--------------------------------------------------------------------------------
Analyzed: Various Interprets / Fractured Silence
--------------------------------------------------------------------------------

DR         Peak         RMS     Duration Track
--------------------------------------------------------------------------------
DR17      -2.81 dB   -25.50 dB      4:24 01-Elegy in E Minor
DR12      -9.08 dB   -26.38 dB      2:39 02-Thoughts Arise and Vanish
DR14      -0.80 dB   -23.20 dB      3:05 03-Lost
DR16      -5.48 dB   -25.01 dB      2:17 04-Blue Gallery
DR14      -9.52 dB   -29.43 dB      1:38 05-Tenki
DR14      -6.23 dB   -24.86 dB      3:04 06-Forgotten Waltz
DR15      -2.87 dB   -24.96 dB      3:57 07-Taffeta
DR15      -2.99 dB   -25.58 dB      2:35 08-Molle
DR12      -2.49 dB   -20.51 dB      1:58 09-Rain
DR17      -0.80 dB   -25.28 dB      2:41 10-Beata
DR16      -6.84 dB   -30.38 dB      2:22 11-Solitude
DR13      -7.73 dB   -28.24 dB      1:43 12-Capri
DR14      -1.09 dB   -21.51 dB      3:18 13-Sky Dark Green
DR14      -0.80 dB   -20.38 dB      4:22 14-Song of Nenna
DR16      -9.69 dB   -31.34 dB      3:28 15-Autumn Melody
DR16      -0.80 dB   -23.49 dB      4:25 16-Melancholic Waltz
DR12      -2.29 dB   -18.54 dB      1:44 17-Winter Silence
DR16      -0.80 dB   -24.86 dB      2:38 18-Capricornus
DR12      -4.35 dB   -21.43 dB      3:21 19-Wandering Shadows
DR13      -0.80 dB   -18.79 dB      4:02 20-By the Sea
DR21      -0.80 dB   -31.31 dB      5:27 21-Almost Silence
--------------------------------------------------------------------------------

Number of tracks:  21
Official DR value: DR15

Samplerate:        88200 Hz
Channels:          2
Bits per sample:   24
Bitrate:           1932 kbps
Codec:             FLAC
================================================================================
No seeders - write personal message to M0p94ok. Any questions - support@pro-jazz.com.
Нет сидеров - пишите в личку M0p94ok. Есть вопросы - support@pro-jazz.com
01:25
204
Нет комментариев. Ваш будет первым!