Поиск

2015 Theo Bleckmann - Love Song (Jubilee Edition) {Winter&Winter} [24-44,1]

2015 Theo Bleckmann - Love Song (Jubilee Edition) {Winter&Winter} [24-44,1]
Стили:
Номер по каталогу:
910 225-2
Носитель:
WEB
Формат:
PCM
Тип рипа:
tracks+.cue
Количество каналов:
2.0
Разрядность/ЧД:
24/44,1
Битрейт аудио:
lossless
Время звучания:
00:56:06
Наличие сканов:
web
Наличие водяных знаков:
нет
Релизёр (источник):
M0p94ok

Треклист:

01. The Man with the Child in His Eyes  04:38
02. Feldeinsamkeit / In Summer Fields feat. Kneebody  04:48
03. But Not for Me feat. Uri Caine Ensemble  03:59
04. My Favorite Things feat. Fumio Yasuda, Kammerorchster Basel  04:06
05. Lili Marleen  03:35
06. Ich Bin Von Kopf Bis Fuß Auf Liebe Eingestellt feat. Fumio Yasuda  02:57
07. I've Got a Crush on You feat. Uri Caine Ensemble  05:12
08. Someone to Watch over Me feat. Fumio Yasuda  03:56
09. True Love feat. Fumio Yasuda, Kammerorchester Basel  03:54
10. I've Got the World on a String feat. Fumio Yasuda  04:55
11. This Woman's Work  03:59
12. I Hear a Rhapsody  04:23
13. Maskulinum-Femininum feat. Fumio Yasuda  01:52
14. Love and Anger  03:52

Лог проверки качества
foobar2000 1.5.5 / Dynamic Range Meter 1.1.1
log date: 2020-10-28 22:46:02

--------------------------------------------------------------------------------
Analyzed: Fumio Yasuda / Love Song (Jubilee Edition) (1-6)
          John Hollenbeck / Love Song (Jubilee Edition) (7-9)
          Theo Bleckmann / Love Song (Jubilee Edition) (10-13)
          Uri Caine / Love Song (Jubilee Edition) (14)
--------------------------------------------------------------------------------

DR         Peak         RMS     Duration Track
--------------------------------------------------------------------------------
DR9       -0.40 dB   -13.17 dB      4:07 04-My Favorite Things
DR13      -0.40 dB   -18.43 dB      2:58 06-Ich bin von Kopf bis Fuß auf Liebe eingestellt
DR13      -0.40 dB   -16.56 dB      3:57 08-Someone to Watch over Me
DR10      -0.40 dB   -14.67 dB      3:54 09-True Love
DR14      -0.40 dB   -18.21 dB      4:55 10-I've Got the World on a String
DR9       -0.40 dB   -14.98 dB      1:53 13-Maskulinum-Femininum
DR14      -0.40 dB   -19.13 dB      4:39 01-The Man with the Child in His Eyes
DR12      -1.31 dB   -17.08 dB      4:00 11-This Woman's Work
DR11      -0.40 dB   -13.48 dB      3:53 14-Love and Anger
DR12      -0.40 dB   -16.66 dB      4:48 02-Feldeinsamkeit / In Summer Fields
DR12      -1.47 dB   -17.49 dB      3:59 03-But Not for Me
DR8       -2.96 dB   -14.39 dB      3:35 05-Lili Marleen
DR12      -6.64 dB   -25.12 dB      4:23 12-I Hear a Rhapsody
DR14      -1.93 dB   -19.52 dB      5:13 07-I've Got a Crush on You
--------------------------------------------------------------------------------

Number of tracks:  14
Official DR value: DR11

Samplerate:        44100 Hz
Channels:          2
Bits per sample:   24
Bitrate:           1353 kbps
Codec:             FLAC
================================================================================
Приватный:
Да (DHT отключён)
Размер:
555.50 Мб (582,487,373 байт) » файлов: 17
Участники:
4 раздают, 14 качают (18 участников всего)
Внешние участники:
--- [ Обновить ]
No seeders - write personal message to M0p94ok. Нет сидеров - пишите в личку M0p94ok.
00:42
156
Нет комментариев. Ваш будет первым!