Поиск

2011 Hank Roberts - Everything is Alive {Winter & Winter 910 174-2} [24-88,2]

2011 Hank Roberts - Everything is Alive {Winter & Winter 910 174-2} [24-88,2]
Дата записи диска:
сентябрь 2010
Место записи:
Sear Sound, New York City, NY, USA
Дата издания диска:
9 декабря 2011
Номер по каталогу:
910 174-2
Носитель:
WEB
Формат:
PCM
Тип рипа:
tracks+.cue
Количество каналов:
2.0
Разрядность/ЧД:
24/88,2
Битрейт аудио:
lossless
Время звучания:
00:54:27
Наличие сканов:
да
Наличие водяных знаков:
нет
Страна-производитель диска (релиза):
Germany
Релизёр (источник):
M0p94ok

Треклист:

01    Crew Cut    4:56
02    Cayuga    6:29
03    Easy's Pocket    4:49
04    Treats With A Blind Dog    5:11
05    Joker's Ace    5:32
06    Open Gate    8:11
07    Necklace    5:10
08    JB    3:15
09    Sapphire    7:39
10    Sapphire Blue    3:02

Лог проверки качества
foobar2000 1.3.16 / Dynamic Range Meter 1.1.1
log date: 2019-03-13 17:36:31

--------------------------------------------------------------------------------
Analyzed: Hank Roberts / Everything is Alive
--------------------------------------------------------------------------------

DR         Peak         RMS     Duration Track
--------------------------------------------------------------------------------
DR13      -0.10 dB   -14.74 dB      4:59 01-Crew Cut
DR16      -0.09 dB   -19.76 dB      6:32 02-Cayuga
DR14      -0.07 dB   -18.14 dB      4:51 03-Easy's Pocket
DR16      -0.08 dB   -18.11 dB      5:14 04-Treats With a Blind Dog
DR16      -0.14 dB   -22.33 dB      5:33 05-Joker's Ace
DR16      -0.06 dB   -18.13 dB      8:11 06-Open Gate
DR13      -4.53 dB   -23.12 dB      5:12 07-Necklace
DR12      -0.05 dB   -14.10 dB      3:17 08-Jb
DR17      -0.09 dB   -20.32 dB      7:40 09-Sapphire
DR14      -0.23 dB   -17.43 dB      3:02 10-Sapphire Blue
--------------------------------------------------------------------------------

Number of tracks:  10
Official DR value: DR15

Samplerate:        88200 Hz
Channels:          2
Bits per sample:   24
Bitrate:           2527 kbps
Codec:             FLAC
================================================================================
Приватный:
Да (DHT отключён)
Размер:
1.00 Гб (1,075,423,217 байт) » файлов: 12
Участники:
4 раздают, 0 качают (4 участников всего)
Внешние участники:
--- [ Обновить ]
No seeders - write personal message to M0p94ok. Нет сидеров - пишите в личку M0p94ok.
23:56
187
Нет комментариев. Ваш будет первым!