Поиск

2013 Jim Black's AlasNoAxis - Antiheroes {Winter & Winter} [24-88,2]

2013 Jim Black's AlasNoAxis - Antiheroes {Winter & Winter} [24-88,2]
Дата записи диска:
август-сентябрь 2012
Место записи:
Sundlaugin Studio, Mosfellsbær, Iceland
Дата издания диска:
15 марта 2013
Номер по каталогу:
910 202-2
Носитель:
WEB
Формат:
PCM
Тип рипа:
tracks+.cue
Количество каналов:
2.0
Разрядность/ЧД:
24/88,2
Битрейт аудио:
lossless
Время звучания:
00:49:56
Наличие сканов:
web
Страна-производитель диска (релиза):
Germany
Релизёр (источник):
M0p94ok
Лог проверки качества
foobar2000 1.3.16 / Dynamic Range Meter 1.1.1
log date: 2019-03-13 17:37:22

--------------------------------------------------------------------------------
Analyzed: Jim Black / Antiheroes
--------------------------------------------------------------------------------

DR         Peak         RMS     Duration Track
--------------------------------------------------------------------------------
DR10      -0.20 dB   -12.98 dB      6:47 01-Antihero
DR10      -0.20 dB   -11.93 dB      4:27 02-Super K's
DR12      -0.20 dB   -14.32 dB      8:12 03-Much Better Now
DR9       -0.20 dB   -11.47 dB      4:48 04-Tockle
DR10      -0.20 dB   -11.43 dB      5:19 05-Sun San
DR11      -0.20 dB   -12.61 dB      7:28 06-Marguay
DR10      -0.20 dB   -13.82 dB      6:04 07-Meowchless
DR10      -0.20 dB   -13.38 dB      6:55 08-Square Pegs
--------------------------------------------------------------------------------

Number of tracks:  8
Official DR value: DR10

Samplerate:        88200 Hz
Channels:          2
Bits per sample:   24
Bitrate:           2562 kbps
Codec:             FLAC
================================================================================
No seeders - write personal message to M0p94ok. Any questions - support@pro-jazz.com.
Нет сидеров - пишите в личку M0p94ok. Есть вопросы - support@pro-jazz.com
02:10
249
Нет комментариев. Ваш будет первым!