Поиск

1956 Jimmy Hamilton and the New York Jazz Quintet (2019) {Urania} [24-96]

1956 Jimmy Hamilton and the New York Jazz Quintet (2019) {Urania} [24-96]
Стили:
Номер по каталогу:
UJLP 1204
Носитель:
WEB
Формат:
PCM
Тип рипа:
tracks+.cue
Количество каналов:
2.0
Разрядность/ЧД:
24/96
Битрейт аудио:
lossless
Время звучания:
00:36:41
Наличие сканов:
web
Страна-производитель диска (релиза):
USA
Релизёр (источник):
M0p94ok
Лог проверки качества
foobar2000 1.3.16 / Dynamic Range Meter 1.1.1
log date: 2019-03-20 23:54:59

--------------------------------------------------------------------------------
Analyzed: Jimmy Hamilton And The New York Jazz Quintet / Jimmy Hamilton and the New York Jazz Quintet
--------------------------------------------------------------------------------

DR         Peak         RMS     Duration Track
--------------------------------------------------------------------------------
DR13      -1.17 dB   -16.81 dB      4:36 01-I Get a Kick out of You
DR12      -1.17 dB   -17.31 dB      6:18 02-Blues in My Music Room
DR12      -1.17 dB   -15.40 dB      4:45 03-Anything but Love
DR12      -1.18 dB   -15.76 dB      2:47 04-Chuckles
DR12      -1.17 dB   -16.13 dB      3:56 05-Bohemia After Dark
DR13      -2.22 dB   -18.96 dB      4:06 06-Blues for Clarinet
DR15      -3.67 dB   -22.01 dB      5:31 07-Solitude
DR13      -2.84 dB   -19.33 dB      4:47 08-What Am I Here For
--------------------------------------------------------------------------------

Number of tracks:  8
Official DR value: DR13

Samplerate:        96000 Hz
Channels:          2
Bits per sample:   24
Bitrate:           2249 kbps
Codec:             FLAC
================================================================================
No seeders - write personal message to M0p94ok. Any questions - support@pro-jazz.com.
Нет сидеров - пишите в личку M0p94ok. Есть вопросы - support@pro-jazz.com
14:56
203
Нет комментариев. Ваш будет первым!