Вы используете незарегистрированную версию компонента "Вкладки"!

Поиск

2019 Mandala Dreams - Sayonara Sun {Epidemic Sound} [24-48]

2019 Mandala Dreams - Sayonara Sun {Epidemic Sound} [24-48]
Стили:
Носитель:
WEB
Формат:
PCM
Тип рипа:
tracks+.cue
Количество каналов:
2.0
Разрядность/ЧД:
24/48
Битрейт аудио:
lossless
Время звучания:
00:29:49
Наличие сканов:
web
Релизёр (источник):
M0p94ok
Лог проверки качества
foobar2000 1.5.5 / Dynamic Range Meter 1.1.1
log date: 2020-11-02 14:31:22

--------------------------------------------------------------------------------
Analyzed: Mandala Dreams / Sayonara Sun
--------------------------------------------------------------------------------

DR         Peak         RMS     Duration Track
--------------------------------------------------------------------------------
DR10      -0.01 dB   -12.04 dB      3:02 01-Sayonara Sun
DR9       -0.01 dB   -11.22 dB      3:51 02-Oku No In
DR9       -0.01 dB   -12.00 dB      3:59 03-As You Flourished
DR8       -0.01 dB   -11.52 dB      3:56 04-Forest Of Lost Souls
DR8       -0.01 dB   -10.22 dB      4:03 05-O Genki De
DR8       -0.01 dB   -10.24 dB      3:45 06-Secrets Of A Geisha
DR8       -0.01 dB    -9.50 dB      3:23 07-Shade Of The Sunflower
DR8       -0.01 dB   -11.15 dB      3:53 08-Cherry Breath
--------------------------------------------------------------------------------

Number of tracks:  8
Official DR value: DR8

Samplerate:        48000 Hz
Channels:          2
Bits per sample:   24
Bitrate:           1478 kbps
Codec:             FLAC
================================================================================
Any questions - support@pro-jazz.com. Есть вопросы - support@pro-jazz.com
15:53
225
Нет комментариев. Ваш будет первым!