Вы используете незарегистрированную версию компонента "Вкладки"!

Поиск

2014 Nils Landgren - Christmas With My Friends IV {ACT Music} [24-96]

2014 Nils Landgren - Christmas With My Friends IV {ACT Music} [24-96]
Стили:
Издатель (лейбл):
Доп. инфо:

Формат записи/Источник записи: [TR24][OF]
Наличие водяных знаков: Нет
Год издания/переиздания диска: 2014
Продолжительность: 54:29
Наличие сканов в содержимом раздачи: Буклет PDF

Контейнер: FLAC (*.flac)
Тип рипа: tracks
Разрядность: 24/96
Формат: PCM
Количество каналов: 2.0

Источник: highresaudio.com

Лог проверки качества
foobar2000 1.3.9 / Dynamic Range Meter 1.1.1
log date: 2019-12-28 23:10:36

--------------------------------------------------------------------------------
Analyzed: Ida Sand with Johan Norberg / Christmas With My Friends IV (1)
          Jeanette Köhn & Ida Sand with Johan Norberg, Jonas Knutsson & Eva Kruse / Christmas With My Friends IV (2)
          Jessica Pilnäs with Ida Sand & Jonas Knutsson / Christmas With My Friends IV (3)
          Johan Norberg / Christmas With My Friends IV (4)
          Nils Landgren with Eva Kruse / Christmas With My Friends IV (5)
          Nils Landgren with Ida Sand, Jessica Pilnäs, Jeanette Köhn, Sharon Dyall, Johan Norberg, Jonas Knutsson & Eva Kruse / Christmas With My Friends IV (6-8)
          Nils Landgren with Jeanette Köhn, Johan Norberg & Jonas Knutsson / Christmas With My Friends IV (9)
          Nils Landgren with Jeanette Köhn / Christmas With My Friends IV (10)
          Nils Landgren with Jessica Pilnäs & Johan Norberg / Christmas With My Friends IV (11)
          Nils Landgren with Johan Norberg / Christmas With My Friends IV (12-13)
          Nils Landgren with Sharon Dyall & Johan Norberg / Christmas With My Friends IV (14)
          Nils Landgren with Sharon Dyall, Ida Sand & Eva Kruse / Christmas With My Friends IV (15)
--------------------------------------------------------------------------------

DR         Peak         RMS     Duration Track
--------------------------------------------------------------------------------
DR10      -2.04 dB   -15.07 dB      3:32 11-In The Bleak Midwinter
DR10      -0.64 dB   -13.21 dB      4:02 06-Angel's Carol
DR10      -0.64 dB   -13.81 dB      4:20 12-Who Would Imagine A King
DR14      -3.60 dB   -23.82 dB      2:53 09-Icicles
DR10      -0.64 dB   -13.18 dB      2:27 04-Santa Claus Is Coming To Town
DR10      -0.64 dB   -14.07 dB      3:59 02-The First Noel
DR9       -0.64 dB   -13.84 dB      5:00 14-O helga natt
DR10      -0.64 dB   -14.07 dB      4:31 15-O du saliga / O du fröhliche
DR10      -0.64 dB   -14.79 dB      3:35 13-Det brinner en stjärna
DR9       -1.62 dB   -14.87 dB      2:24 10-Maria durch ein Dornwald ging
DR11      -0.64 dB   -14.18 dB      4:05 05-What A Wonderful World
DR10      -1.48 dB   -13.98 dB      3:11 01-I Wish It Was Christmas
DR10      -1.15 dB   -14.97 dB      3:26 07-Last Christmas
DR9       -0.64 dB   -14.69 dB      4:16 03-Come Sunday
DR8       -0.64 dB   -10.60 dB      2:48 08-If Anybody Ask You
--------------------------------------------------------------------------------

Number of tracks:  15
Official DR value: DR10

Samplerate:        96000 Hz
Channels:          2
Bits per sample:   24
Bitrate:           2715 kbps
Codec:             FLAC
================================================================================
Any questions - support@pro-jazz.com. Есть вопросы - support@pro-jazz.com
14:36
236
Нет комментариев. Ваш будет первым!