Вы используете незарегистрированную версию компонента "Вкладки"!

Поиск

1958 Charlie Byrd - Bamba Samba Bossa Nova (2019) {Everest} [24-44,1]

1958 Charlie Byrd - Bamba Samba Bossa Nova (2019) {Everest} [24-44,1]
Доп. инфо:

Формат записи/Источник записи: [TR24][OF]
Год издания/переиздания диска: 1958/2019
Издатель (лейбл): Everest Records
Продолжительность: 00:28:03
Наличие сканов в содержимом раздачи: Нет

Контейнер: FLAC (*.flac)
Тип рипа: tracks
Разрядность: 24/44,1
Количество каналов: 2.0

Источник (релизер): Qobuz

Лог проверки качества
foobar2000 1.3.16 / Dynamic Range Meter 1.1.1
log date: 2019-04-23 22:49:27

--------------------------------------------------------------------------------
Analyzed: Charlie Byrd / Bamba Samba Bossa Nova
--------------------------------------------------------------------------------

DR         Peak         RMS     Duration Track
--------------------------------------------------------------------------------
DR8       -1.20 dB   -10.09 dB      3:07 01-Bamba Samba Bossa Nova
DR9       -1.20 dB   -11.42 dB      3:04 02-Original, No. 2
DR8       -1.20 dB   -12.06 dB      4:04 03-Love Song Ballad
DR9       -1.20 dB   -11.56 dB      3:59 04-Prelude a La Cha Cha
DR10      -1.20 dB   -13.27 dB      3:53 05-Summer Sequence, Pt. 1
DR9       -1.20 dB   -11.74 dB      2:10 06-Summer Sequence, Pt. 2
DR9       -1.20 dB   -12.28 dB      3:42 07-Summer Sequence, Pt. 3
DR9       -1.20 dB   -12.00 dB      4:08 08-Summer Sequence, Pt. 4
--------------------------------------------------------------------------------

Number of tracks:  8
Official DR value: DR9

Samplerate:        44100 Hz
Channels:          2
Bits per sample:   24
Bitrate:           1406 kbps
Codec:             FLAC
================================================================================
Any questions - support@pro-jazz.com. Есть вопросы - support@pro-jazz.com
14:27
315
Нет комментариев. Ваш будет первым!