Вы используете незарегистрированную версию компонента "Вкладки"!

Поиск

2016 Nils Landgren - Christmas With My Friends V {ACT Music} [24-96]

2016 Nils Landgren - Christmas With My Friends V {ACT Music} [24-96]
Стили:
Издатель (лейбл):
Доп. инфо:

Формат записи/Источник записи: [TR24][OF]
Наличие водяных знаков: Нет
Год издания/переиздания диска: 2016
Продолжительность: 56:45
Наличие сканов в содержимом раздачи: Буклет PDF

Контейнер: FLAC (*.flac)
Тип рипа: tracks
Разрядность: 24/96
Формат: PCM
Количество каналов: 2.0

Источник: highresaudio.com

Лог проверки качества
foobar2000 1.3.9 / Dynamic Range Meter 1.1.1
log date: 2019-12-29 00:10:27

--------------------------------------------------------------------------------
Analyzed: Nils Landgren / Christmas With My Friends V
--------------------------------------------------------------------------------

DR         Peak         RMS     Duration Track
--------------------------------------------------------------------------------
DR12      -3.88 dB   -19.75 dB      2:02 01-Morgenstern und Morgenlicht
DR11      -0.59 dB   -15.52 dB      3:27 02-Let The Stars Come Out Tonight
DR7       -0.59 dB   -11.84 dB      2:31 03-Joy To The World
DR8       -0.59 dB   -11.46 dB      2:32 04-Baby It's Cold Outside
DR7       -0.59 dB   -10.74 dB      3:21 05-Everyday Is Christmas
DR7       -0.59 dB    -9.24 dB      2:51 06-Go Tell It On The Mountain
DR10      -0.59 dB   -13.34 dB      2:48 07-Sleigh Ride
DR10      -0.59 dB   -14.24 dB      3:06 08-O Heiland, reiß die Himmel auf
DR11      -0.59 dB   -13.94 dB      3:07 09-Auld Lang Syne
DR7       -0.59 dB    -9.26 dB      3:30 10-Love Is Born
DR9       -0.59 dB   -13.42 dB      3:24 11-Gläns Över Sjö och strand
DR9       -0.59 dB   -11.79 dB      3:37 12-Hosianna
DR8       -0.59 dB   -11.95 dB      2:43 13-Härlig är jorden
DR11      -0.59 dB   -15.99 dB      3:06 14-Seven Stains From Christmas Eve
DR10      -0.59 dB   -13.89 dB      3:22 15-There Is No Rose
DR16     -11.84 dB   -33.27 dB      3:25 16-Kokles Christmas
DR12      -0.59 dB   -15.83 dB      3:47 17-Now The Time Is Here
DR8       -0.59 dB   -12.04 dB      4:07 18-Bereden väg för Herren
--------------------------------------------------------------------------------

Number of tracks:  18
Official DR value: DR10

Samplerate:        96000 Hz
Channels:          2
Bits per sample:   24
Bitrate:           2744 kbps
Codec:             FLAC
================================================================================
Any questions - support@pro-jazz.com. Есть вопросы - support@pro-jazz.com
16:02
266
Нет комментариев. Ваш будет первым!