Поиск

2014 Benny Goodman - 35 Essentials of Benny Goodman {BnF} [24-96]

2014 Benny Goodman - 35 Essentials of Benny Goodman {BnF} [24-96]
Стили:
Дата издания диска:
8 августа 2014
Носитель:
WEB
Формат:
PCM
Тип рипа:
tracks
Контейнер:
FLAC (*.flac)
Количество каналов:
2.0
Разрядность/ЧД:
24/96
Битрейт аудио:
lossless
Время звучания:
01:53:50
Наличие сканов:
только обложка

01. Stompin' at the Savoy (03:16)
02. When Buddha Smiles (03:16)
03. Runnin' Wild (02:40)
04. Sing, Sing, Sing (03:27)
05. The Man I Love (03:28)
06. Let's Dance (00:49)
07. Makin' Whoopee (03:09)
08. Sweet Georgia Brown (03:06)
09. Body and Soul (03:31)
10. Down South Camp Meetin' (03:12)
11. Henderson Stomp (02:44)
12. Memories of You (03:21)
13. Oh, Lady Be Good (03:04)
14. Sweet Sue, Just You (03:19)
15. Avalon (03:17)
16. I Can't Get Started (03:18)
17. It's Been so Long (03:37)
18. Whispering (03:24)
19. Behave Yourself (03:00)
20. Dinah (02:43)
21. Tiger Bag (03:25)
22. China Boy (03:15)
23. Opus 1 / 2 (03:25)
24. Shine (04:35)
25. Pick a Rib (05:01)
26. Moonglow (02:58)
27. Puttin'on the Ritz (03:04)
28. And the Angels Sing (03:59)
29. I Never Knew (03:09)
30. Bugle Call Rag (02:49)
31. One O'Clock Jump (03:56)
32. That's a Plenty (03:08)
33. Don't Be That Way (03:06)
34. Smiles (03:02)
35. Good-Bye (03:17)

Лог проверки качества
foobar2000 1.6.7 / Замер динамического диапазона (DR) 1.1.1
Дата отчёта:  2021-10-23 10:19:23
--------------------------------------------------------------------------------
Анализ:   Benny Goodman / 35 Essentials of Benny Goodman
--------------------------------------------------------------------------------
DR         Пики         RMS           Продолжительность трека
--------------------------------------------------------------------------------
DR11      -3.29 дБ   -16.99 дБ      3:16 01-Stompin' at the Savoy
DR12      -5.68 дБ   -20.20 дБ      3:16 02-When Buddha Smiles
DR13      -3.71 дБ   -20.11 дБ      2:40 03-Runnin' Wild
DR12      -2.28 дБ   -16.55 дБ      3:27 04-Sing, Sing, Sing
DR12      -6.03 дБ   -19.91 дБ      3:28 05-The Man I Love
DR11      -3.63 дБ   -16.98 дБ      0:49 06-Let's Dance
DR10      -3.86 дБ   -17.03 дБ      3:09 07-Makin' Whoopee
DR11      -5.40 дБ   -18.81 дБ      3:06 08-Sweet Georgia Brown
DR12      -7.54 дБ   -22.70 дБ      3:31 09-Body and Soul
DR11      -1.26 дБ   -15.07 дБ      3:12 10-Down South Camp Meetin'
DR11      -3.21 дБ   -16.53 дБ      2:44 11-Henderson Stomp
DR11      -6.33 дБ   -20.98 дБ      3:21 12-Memories of You
DR13      -7.46 дБ   -22.78 дБ      3:04 13-Oh, Lady Be Good
DR12      -6.15 дБ   -20.11 дБ      3:19 14-Sweet Sue, Just You
DR13      -2.39 дБ   -18.03 дБ      3:17 15-Avalon
DR11      -2.41 дБ   -17.27 дБ      3:18 16-I Can't Get Started
DR12      -2.04 дБ   -17.29 дБ      3:37 17-It's Been so Long
DR12      -3.75 дБ   -19.06 дБ      3:24 18-Whispering
DR11      -3.99 дБ   -17.02 дБ      3:00 19-Behave Yourself
DR13      -5.78 дБ   -20.84 дБ      2:43 20-Dinah
DR13      -1.06 дБ   -18.32 дБ      3:25 21-Tiger Bag
DR12      -2.66 дБ   -16.74 дБ      3:15 22-China Boy
DR11      -5.18 дБ   -18.64 дБ      3:25 23-Opus 1 / 2
DR13      -1.74 дБ   -19.26 дБ      4:35 24-Shine
DR11      -5.64 дБ   -20.51 дБ      5:01 25-Pick a Rib
DR13      -1.14 дБ   -15.95 дБ      2:58 26-Moonglow
DR11      -2.73 дБ   -16.72 дБ      3:04 27-Puttin'on the Ritz
DR12      -0.99 дБ   -16.02 дБ      3:59 28-And the Angels Sing
DR11      -3.20 дБ   -17.33 дБ      3:09 29-I Never Knew
DR11      -2.20 дБ   -15.90 дБ      2:49 30-Bugle Call Rag
DR11      -2.03 дБ   -15.99 дБ      3:56 31-One O'Clock Jump
DR11      -2.61 дБ   -16.54 дБ      3:08 32-That's a Plenty
DR14      -1.82 дБ   -18.53 дБ      3:06 33-Don't Be That Way
DR12      -5.91 дБ   -20.56 дБ      3:02 34-Smiles
DR12      -1.51 дБ   -17.46 дБ      3:17 35-Good-Bye
--------------------------------------------------------------------------------
Количество треков: 35
Реальные значения DR: DR12
Частота:   96000 Гц
Каналов:   2
Разрядность:   24
Битрейт:   1362 кбит/с
Кодек:   FLAC
================================================================================
Скачивание доступно после регистрации!!
Приватный:
Нет (DHT включён)
Размер:
1.08 Гб (1,156,024,237 байт) » файлов: 37
Участники:
0 раздают, 0 качают (0 участников всего)
Внешние участники:
5 раздают, 1 качают (6 участников всего) [ Обновить ]
17:36
415
Нет комментариев. Ваш будет первым!