Поиск

1956 Benny Goodman and His Orchestra - The Benny Goodman Story (2014) {BnF} [24-96]

1956 Benny Goodman and His Orchestra - The Benny Goodman Story (2014) {BnF} [24-96]
Стили:
Носитель:
WEB
Формат:
PCM
Тип рипа:
tracks
Контейнер:
FLAC (*.flac)
Количество каналов:
mono
Разрядность/ЧД:
24/96
Битрейт аудио:
lossless
Время звучания:
00:48:54
Наличие сканов:
только обложка

Треклист:

01. Let's Dance (00:49)
02. Bugle Call Rag (02:49)
03. Memories of You (03:21)
04. One O'clock Jump (03:56)
05. Avalon (03:17)
06. Don't Be That Way (03:06)
07. Down South Camp Meetin' (03:12)
08. Stompin' At the Savoy (03:16)
09. Sing, Sing, Sing (03:27)
10. And the Angels Sing (03:59)
11. China Boy (03:15)
12. It's Been so Long (03:37)
13. Moonglow (02:58)
14. Shine (04:35)
15. Good-Bye (03:17)

Лог проверки качества
foobar2000 1.6.7 / Замер динамического диапазона (DR) 1.1.1
Дата отчёта:  2021-10-23 10:33:59
--------------------------------------------------------------------------------
Анализ:   Benny Goodman and His Orchestra / The Benny Goodman Story
--------------------------------------------------------------------------------
DR         Пики         RMS           Продолжительность трека
--------------------------------------------------------------------------------
DR11      -3.63 дБ   -16.98 дБ      0:49 01-Let's Dance
DR11      -2.20 дБ   -15.90 дБ      2:49 02-Bugle Call Rag
DR11      -6.33 дБ   -20.98 дБ      3:21 03-Memories of You
DR11      -2.03 дБ   -15.99 дБ      3:56 04-One O'clock Jump
DR13      -2.39 дБ   -18.03 дБ      3:17 05-Avalon
DR14      -1.82 дБ   -18.53 дБ      3:06 06-Don't Be That Way
DR11      -1.26 дБ   -15.07 дБ      3:12 07-Down South Camp Meetin'
DR11      -3.29 дБ   -16.99 дБ      3:16 08-Stompin' At the Savoy
DR12      -2.28 дБ   -16.55 дБ      3:27 09-Sing, Sing, Sing
DR12      -0.99 дБ   -16.02 дБ      3:59 10-And the Angels Sing
DR12      -2.66 дБ   -16.74 дБ      3:15 11-China Boy
DR12      -2.04 дБ   -17.29 дБ      3:37 12-It's Been so Long
DR13      -1.14 дБ   -15.95 дБ      2:58 13-Moonglow
DR13      -1.74 дБ   -19.26 дБ      4:35 14-Shine
DR12      -1.51 дБ   -17.46 дБ      3:17 15-Good-Bye
--------------------------------------------------------------------------------
Количество треков: 15
Реальные значения DR: DR12
Частота:   96000 Гц
Каналов:   2
Разрядность:   24
Битрейт:   1362 кбит/с
Кодек:   FLAC
================================================================================
21:01
284
Нет комментариев. Ваш будет первым!