Поиск

2013 Skadedyr - Kongekrabbe {Hubro} [24-48]

2013 Skadedyr - Kongekrabbe {Hubro} [24-48]
Дата записи диска:
Propeller Music Division, Oslo, Norway
Дата издания диска:
4 октября 2013
Издатель (лейбл):
Носитель:
WEB
Формат:
PCM
Тип рипа:
tracks
Контейнер:
FLAC (*.flac)
Количество каналов:
2.0
Разрядность/ЧД:
24/48
Битрейт аудио:
lossless
Время звучания:
00:36:49
Наличие сканов:
только обложка

01 - Intro Linselus (03:03)
02 - Linselus-Due (08:44)
03 - Kongekrabbe (06:13)
04 - Partylus (07:55)
05 - Lakselus (10:52)

Состав:
  • Arranged By – Skadedyr
  • Mastered By – Morgan Nicolaysen
  • Mixed By – Andreas Mjøs
  • Performer – Adrian Løseth Waade, Anja Lauvdal, Fredrik Luhr Dietrichson, Hans Hulbækmo, Heiða Karine Jóhannesdóttir Mobeck, Henrik Munkeby Nørstebø, Ida Løvli Hidle, Ina Sagstuen, Joakim Heibø, Lars Ove Fossheim, Marius Klovning*, Torstein Lavik Larsen
  • Producer – Andreas Mjøs
  • Recorded By – Andreas Mjøs, Morgan Nicolaysen
  • Recorded By [Assisted By] – Jacob Dobewall
Лог проверки качества
foobar2000 1.4.2 / Dynamic Range Meter 1.1.1
log date: 2021-07-26 21:00:18
--------------------------------------------------------------------------------
Analyzed: Skadedyr / Kongekrabbe
--------------------------------------------------------------------------------
DR         Peak         RMS     Duration Track
--------------------------------------------------------------------------------
DR11      -0.40 dB   -16.65 dB      3:03 01-Intro Linselus
DR9       -0.40 dB   -14.58 dB      8:45 02-Linselus/Due
DR8       -0.40 dB   -12.17 dB      6:13 03-Kongekrabbe
DR10      -0.40 dB   -13.71 dB      7:55 04-Partylus
DR8       -0.40 dB   -12.88 dB     10:53 05-Lakselus
--------------------------------------------------------------------------------
Number of tracks:  5
Official DR value: DR9
Samplerate:        48000 Hz
Channels:          2
Bits per sample:   24
Bitrate:           1457 kbps
Codec:             FLAC
================================================================================
Приватный:
Нет (DHT включён)
Размер:
388.67 Мб (407,544,875 байт) » файлов: 6
Участники:
0 раздают, 0 качают (0 участников всего)
Внешние участники:
1 раздают, 0 качают (1 участников всего) [ Обновить ]
21:09
558
Нет комментариев. Ваш будет первым!