Поиск

2016 Moskus - Ulv Ulv {Hubro} [24-48]

2016 Moskus - Ulv Ulv {Hubro} [24-48]
Дата записи диска:
2 января - 4 января 2015
Место записи:
Haugesund Billedgalleri, Haugesund
Дата издания диска:
5 января 2016
Издатель (лейбл):
Носитель:
WEB
Формат:
PCM
Тип рипа:
tracks
Контейнер:
FLAC (*.flac)
Количество каналов:
2.0
Разрядность/ЧД:
24/48
Битрейт аудио:
lossless
Время звучания:
00:44:03
Наличие сканов:
только обложка

Треклист:

01 - Medstroms (03:04)
02 - Angelfossen (01:39)
03 - Noe Med Utopia, Klondike (05:17)
04 - Den Store Skjonnheten (06:14)
05 - Chimes - Gullregn (06:16)
06 - Kullgraver (04:34)
07 - We Will Always Love You Too, Whitney Houston (03:01)
08 - Gramjeger (00:42)
09 - Borre Borre Gulleple, Sla Vekk (09:56)
10 - Ei Signekjerring (03:16)

Состав:
  • Anja Lauvdal: grand piano, harmonium and synthesizer
  • Fredrik Luhr Dietrichson: double bass
  • Hans Hulbækmo: drums, jews harp, percussion, saw and wind instruments
  • Nils Økland: Hardanger fiddle (4 and 9)
  • Produced by Andreas Risanger Meland and Moskus
  • Recorded by Audun Strype
  • Mixed and mastered by Audun Strype at Strype Audio, autumn 2015.

Thanks to: Audun Strype, Andreas Risanger Meland, Nils Økland, Haugesund Billedgalleri and Grethe Lunde Øvrebø, Siri, Christian and Heida, Mor og Far, Mamma og Pappa.
All music by Moskus except “Den store skjønnheten” and “Borre borre gulleple, slå vekk” by Moskus and Nils Økland.

Лог проверки качества
foobar2000 1.4.2 / Dynamic Range Meter 1.1.1
log date: 2021-07-26 20:59:33
--------------------------------------------------------------------------------
Analyzed: Moskus / Ulv Ulv
--------------------------------------------------------------------------------
DR         Peak         RMS     Duration Track
--------------------------------------------------------------------------------
DR16      -0.53 dB   -20.73 dB      3:04 01-MedstrГёms
DR9       -2.55 dB   -16.20 dB      1:40 02-Angelfossen
DR9       -1.80 dB   -13.64 dB      5:18 03-Noe Med Utopia, Klondike
DR11      -0.53 dB   -15.37 dB      6:14 04-Den Store SkjГёnnheten
DR9       -1.18 dB   -14.69 dB      6:16 05-Chimes / Gullregn
DR10      -1.26 dB   -14.25 dB      4:34 06-Kullgraver
DR11      -2.08 dB   -15.75 dB      3:01 07-We Will Always Love You Too, Whitney Houston
DR11      -4.07 dB   -19.43 dB      0:42 08-Gramjeger
DR10      -0.51 dB   -16.62 dB      9:57 09-Borre Borre Gulleple, SlГҐ Vekk
DR10      -9.95 dB   -21.92 dB      3:16 10-Ei Signekjerring
--------------------------------------------------------------------------------
Number of tracks:  10
Official DR value: DR11
Samplerate:        48000 Hz
Channels:          2
Bits per sample:   24
Bitrate:           1128 kbps
Codec:             FLAC
================================================================================
По всем вопросам пишите личное сообщение пользователю M0p94ok.
10:39
184
Нет комментариев. Ваш будет первым!