Поиск

2014 sPacemoNKey - The Karman Line {Hubro} [24-44.1]

2014 sPacemoNKey - The Karman Line {Hubro} [24-44.1]
Стили:
Дата записи диска:
29 октября - 31 октября, 1 ноября 2012
Место записи:
Propeller Music Division, Nasjonal Jazzscene, The Green Room, Oslo
Дата издания диска:
28 февраля 2014
Издатель (лейбл):
Номер по каталогу:
HUBRO2543
Носитель:
WEB
Формат:
PCM
Тип рипа:
tracks
Контейнер:
FLAC (*.flac)
Количество каналов:
2.0
Разрядность/ЧД:
24/44,1
Битрейт аудио:
lossless
Время звучания:
00:44:44
Наличие сканов:
только обложка

Треклист:

01 - Aeronautics (07:13)
02 - Chopping Wood in My Brand New Moon Boots (04:28)
03 - Digital Cigarettes (07:10)
04 - Darkness (02:21)
05 - Blue Baboon and Carpenter (03:46)
06 - Spacemonkey (06:27)
07 - Meanwhile in a Galaxy Far Away (03:59)
08 - Long Distance Call (06:21)
09 - Landing Day (02:55)

Состав:

Drums, Gong [Gongs], Bells, Vibraphone, Electronics – Gard Nilssen
Mixed By, Mastered By – Jørgen Træen
Music By – Morten Qvenild (треков: 2, 5, 9), sPacemoNkey (2) (треков: 1, 3, 6 to 8)
Piano [Hyperpiano], Electronics, Programmed By [Programming] – Morten Qvenild
Producer, Arranged By – sPacemoNkey (2)
Recorded By [Green Room (Additional Recordings)] – Morten Qvenild
Recorded By [Nasjonal Jazzscene] – Daniel Mikael Wold* (треков: 3)
Recorded By [Propeller Music Division] – Andreas Horntveth*, Mike Hartung

Лог проверки качества
foobar2000 1.4.2 / Dynamic Range Meter 1.1.1
log date: 2021-07-26 21:00:33
--------------------------------------------------------------------------------
Analyzed: Spacemonkey / The Karman Line
--------------------------------------------------------------------------------
DR         Peak         RMS     Duration Track
--------------------------------------------------------------------------------
DR7       -0.10 dB   -11.94 dB      7:14 01-Aeronautics
DR11      -0.10 dB   -15.87 dB      4:29 02-Chopping Wood in My Brand New Moon Boots
DR8       -0.10 dB   -10.80 dB      7:10 03-Digital Cigarettes
DR13      -0.10 dB   -17.29 dB      2:21 04-Darkness
DR10      -0.10 dB   -13.96 dB      3:46 05-Blue Baboon and Carpenter
DR5       -0.10 dB    -8.99 dB      6:28 06-Spacemonkey
DR5       -0.10 dB    -9.89 dB      3:59 07-Meanwhile in a Galaxy Far Away
DR10      -0.10 dB   -15.00 dB      6:22 08-Long Distance Call
DR12      -0.10 dB   -17.52 dB      2:55 09-Landing Day
--------------------------------------------------------------------------------
Number of tracks:  9
Official DR value: DR9
Samplerate:        44100 Hz
Channels:          2
Bits per sample:   24
Bitrate:           1287 kbps
Codec:             FLAC
================================================================================
По всем вопросам пишите личное сообщение пользователю M0p94ok.
16:40
238
Нет комментариев. Ваш будет первым!