Поиск

2013 Daniel Schwartz - Thoughts of Energy (2018) {DigiNorth} [24-44.1]

2013 Daniel Schwartz - Thoughts of Energy (2018) {DigiNorth} [24-44.1]
Стили:
Дата издания диска:
10 сентября 2013
Дата переиздания диска:
20 декабря 2018
Носитель:
WEB
Формат:
PCM
Тип рипа:
tracks
Контейнер:
FLAC (*.flac)
Количество каналов:
2.0
Разрядность/ЧД:
24/44,1
Битрейт аудио:
lossless
Время звучания:
00:51:08
Наличие сканов:
только обложка

1. Desert Sandstorm   05:17
2. Oundvikligt Vemod   07:38
3. I See You for Who You Are   07:27
4. Checkpoint Charlie   05:02
5. Kaffet   06:08
6. Shamshir   08:33
7. Konstapeln   04:14
8. Zen Raga Schwa   06:49

Состав:
  • Daniel Schwartz — guitar
Лог проверки качества
foobar2000 1.6.2 / Dynamic Range Meter 1.1.1
log date: 2021-12-01 10:53:23

--------------------------------------------------------------------------------
Analyzed: Daniel Schwartz / Thoughts of Energy
--------------------------------------------------------------------------------

DR         Peak         RMS     Duration Track
--------------------------------------------------------------------------------
DR5       -0.10 dB    -6.55 dB      5:18 01-Desert Sandstorm
DR4       -0.10 dB    -5.27 dB      7:38 02-Oundvikligt Vemod
DR5       -0.10 dB    -7.26 dB      7:28 03-I See You for Who You Are
DR6       -0.10 dB    -8.67 dB      5:02 04-Checkpoint Charlie
DR5       -0.10 dB    -5.92 dB      6:08 05-Kaffet
DR5       -0.10 dB    -6.34 dB      8:33 06-Shamshir
DR4       -0.10 dB    -5.40 dB      4:14 07-Konstapeln
DR5       -0.10 dB    -6.80 dB      6:49 08-Zen Raga Schwa
--------------------------------------------------------------------------------

Number of tracks:  8
Official DR value: DR5

Samplerate:        44100 Hz
Channels:          2
Bits per sample:   24
Bitrate:           1669 kbps
Codec:             FLAC
================================================================================
Приватный:
Нет (DHT включён)
Размер:
605.10 Мб (634,488,795 байт) » файлов: 10
Участники:
4 раздают, 0 качают (4 участников всего)
Внешние участники:
--- [ Обновить ]
12:12
484
Нет комментариев. Ваш будет первым!