Поиск

1958 Art Tatum, Benny Carter, Louis Bellson - Makin' Whoopee (2021) {Music Manager} [24-48]

1958 Art Tatum, Benny Carter, Louis Bellson - Makin' Whoopee (2021) {Music Manager} [24-48]
Дата записи диска:
25 июня 1954
Дата переиздания диска:
22 июня 2021
Издатель (лейбл):
Носитель:
WEB
Формат:
PCM
Тип рипа:
tracks
Контейнер:
FLAC (*.flac)
Количество каналов:
2.0
Разрядность/ЧД:
24/48
Битрейт аудио:
lossless
Время звучания:
00:36:06
Наличие сканов:
только обложка

01 - Blues in C 08:04
02 - A Foggy Day 05:29
03 - You're Mine You 05:12
04 - Undecided 04:53
05 - Under a Blanket of Blue 06:16
06 - Makin' Whoopee 06:12

Состав:
Лог проверки качества
foobar2000 1.4.6 / Dynamic Range Meter 1.1.1
log date: 2021-07-01 21:34:37

--------------------------------------------------------------------------------
Analyzed: Art Tatum / Makin' Whoopee
--------------------------------------------------------------------------------

DR         Peak         RMS     Duration Track
--------------------------------------------------------------------------------
DR11      -0.01 dB   -14.69 dB      8:05 01-Blues in C
DR11      -0.04 dB   -13.02 dB      5:29 02-A Foggy Day
DR11      -0.04 dB   -13.39 dB      5:12 03-You're Mine You
DR11      -0.06 dB   -13.04 dB      4:53 04-Undecided
DR11      -0.06 dB   -13.54 dB      6:16 05-Under a Blanket of Blue
DR11      -0.04 dB   -13.15 dB      6:13 06-Makin' Whoopee
--------------------------------------------------------------------------------

Number of tracks:  6
Official DR value: DR11

Samplerate:        48000 Hz
Channels:          2
Bits per sample:   24
Bitrate:           1063 kbps
Codec:             FLAC
================================================================================
Приватный:
Нет (DHT включён)
Размер:
285.89 Мб (299,779,010 байт) » файлов: 11
Участники:
0 раздают, 0 качают (0 участников всего)
Внешние участники:
5 раздают, 2 качают (7 участников всего) [ Обновить ]
11:33
718
Нет комментариев. Ваш будет первым!