Поиск

1959 Jackie Davis - Meets the Trombones (2021) {Music Manager} [24-48]

1959 Jackie Davis - Meets the Trombones (2021) {Music Manager} [24-48]
Стили:
Дата переиздания диска:
22 июня 2021
Издатель (лейбл):
Носитель:
WEB
Формат:
PCM
Тип рипа:
tracks
Контейнер:
FLAC (*.flac)
Количество каналов:
2.0
Разрядность/ЧД:
24/48
Битрейт аудио:
lossless
Время звучания:
00:32:00
Наличие сканов:
только обложка

Треклист:

01 - Yours Is My Heart Alone 03:22
02 - Frenesi 02:37
03 - When I'm with You 04:27
04 - My! My! 02:33
05 - There's Something in the Air 02:52
06 - Charleston Alley 03:06
07 - Falling in Love with Love 04:22
08 - Gonna Get a Girl 02:59
09 - Fascinating Rhythm 02:49
10 - This Can't Be Love 02:53

Состав:
  • Bass – Joe Comfort
  • Bongos – Nat "Weede" Morris
  • Conductor – Gerald Wilson
  • Drums – Milt Holland
  • French Horn – Vince De Rosa
  • Guitar – Irving Ashby
  • Organ [Hammond] – Jackie Davis
  • Trombone – Bob Fitzpatrick, Dick Nash, Ed Kusby, Frank Rosolino, George Roberts, Joe Howard, Ken Shroyer, Lester Robertson, Nick Di Maio
Лог проверки качества
foobar2000 1.4.6 / Dynamic Range Meter 1.1.1
log date: 2021-07-04 07:07:22

--------------------------------------------------------------------------------
Analyzed: Jackie Davis / Jackie Davis Meets the Trombones
--------------------------------------------------------------------------------

DR         Peak         RMS     Duration Track
--------------------------------------------------------------------------------
DR14      -0.20 dB   -18.17 dB      3:22 01-Yours Is My Heart Alone
DR13      -0.08 dB   -17.64 dB      2:37 02-Frenesi
DR14      -0.08 dB   -19.86 dB      4:27 03-When I'm with You
DR13      -0.05 dB   -17.04 dB      2:33 04-My! My!
DR14      -0.32 dB   -18.70 dB      2:53 05-There's Something in the Air
DR13      -0.12 dB   -17.41 dB      3:07 06-Charleston Alley
DR13       0.00 dB   -17.44 dB      4:23 07-Falling in Love with Love
DR13       0.00 dB   -17.35 dB      2:59 08-Gonna Get a Girl
DR14      -0.08 dB   -17.48 dB      2:49 09-Fascinating Rhythm
DR13      -0.04 dB   -16.93 dB      2:53 10-This Can't Be Love
--------------------------------------------------------------------------------

Number of tracks:  10
Official DR value: DR13

Samplerate:        48000 Hz
Channels:          2
Bits per sample:   24
Bitrate:           1146 kbps
Codec:             FLAC
================================================================================
По всем вопросам пишите личное сообщение пользователю M0p94ok.
12:32
274
Нет комментариев. Ваш будет первым!