Поиск

2006 Francesco Cafiso Quartet - Seven Steps To Heaven (2017) {Venus} [DSD64 ISO]

2006 Francesco Cafiso Quartet - Seven Steps To Heaven (2017) {Venus} [DSD64 ISO]
Стили:
Дата записи диска:
4 января - 5 января 2006
Место записи:
Rome, Italy
Дата издания диска:
19 июля 2006
Издатель (лейбл):
Номер по каталогу:
VHGD-223
Носитель:
SACD
Формат:
DSD
Тип рипа:
image
Контейнер:
ISO (*.iso)
Количество каналов:
2.0
Разрядность/ЧД:
64 (2,8 MHz/1 Bit)
Битрейт аудио:
lossless
Время звучания:
00:56:58
Наличие сканов:
да

1. Seven Steps to Heaven  06:49
2. Green Chimneys  07:16
3. Yesterdays  07:07
4. On the Trail  09:44
5. My Funny Valentine  08:08
6. Milestones  06:51
7. Crazeology  05:33
8. Slylark  06:00

Состав:
  • Francesco Cafiso — alto sax
  • Andrea Pozza — piano
  • Aldo Zunino — bass
  • Nicola Angelucci — drums
Лог проверки качества
foobar2000 1.6.4 / Dynamic Range Meter 1.1.1
log date: 2021-07-07 08:41:04

--------------------------------------------------------------------------------
Analyzed: FRANCESCO CAFISO QUARTET / Seven Steps To Heaven
--------------------------------------------------------------------------------

DR         Peak         RMS     Duration Track
--------------------------------------------------------------------------------
DR6       -4.35 dB   -13.35 dB      6:45 01-Seven Steps To Heaven
DR7       -4.30 dB   -13.04 dB      7:12 02-Green Chimneys
DR7       -4.87 dB   -14.25 dB      7:03 03-Yesterdays
DR7       -4.89 dB   -13.63 dB      9:40 04-On The Trail
DR7       -4.64 dB   -15.04 dB      8:04 05-My Funny Valentine
DR7       -4.86 dB   -13.53 dB      6:47 06-Milestones
DR6       -4.68 dB   -11.87 dB      5:28 07-Crazeology
DR10      -4.97 dB   -17.73 dB      6:01 08-Skylark
--------------------------------------------------------------------------------

Number of tracks:  8
Official DR value: DR7

Samplerate:        2822400 Hz / PCM Samplerate: 88200 Hz
Channels:          2
Bits per sample:   1
Bitrate:           5645 kbps
Codec:             DSD64
================================================================================
Приватный:
Нет (DHT включён)
Размер:
2.32 Гб (2,487,718,425 байт) » файлов: 5
Участники:
1 раздают, 1 качают (2 участников всего)
Внешние участники:
5 раздают, 2 качают (7 участников всего) [ Обновить ]
22:11
578
Нет комментариев. Ваш будет первым!