Вы используете незарегистрированную версию компонента "Вкладки"!

Поиск

2012 Ron Carter, Golden Striker Trio - San Sebastian {IN+OUT} [24-44,1]

2012 Ron Carter, Golden Striker Trio - San Sebastian {IN+OUT} [24-44,1]
Дата записи диска:
22 июля 2012
Место записи:
Jazzaldia Festival, Plaza De La Trinidad, San Sebastian, Spain
Битрейт аудио:
lossless
Доп. инфо:

Формат записи/Источник записи: [TR24][OF]
Год издания/переиздания диска: 2012
Издатель (лейбл): IN+OUT Records
Продолжительность: 00:55:46
Наличие сканов в содержимом раздачи: Нет

Контейнер: FLAC (*.flac)
Тип рипа: tracks
Разрядность: 24/44,1
Количество каналов: 2.0

Источник (релизер): HIGHRESAUDIO

Лог проверки качества
foobar2000 1.3.7 / Dynamic Range Meter 1.1.1
log date: 2019-11-20 02:12:36

--------------------------------------------------------------------------------
Analyzed: Ron Carter Golden Striker Trio feat. Mulgrew Miller & Russell Malone / San Sebastian
--------------------------------------------------------------------------------

DR         Peak         RMS     Duration Track
--------------------------------------------------------------------------------
DR12      -1.08 dB   -17.67 dB      9:37 01-Candle Light (Live)
DR16      -1.06 dB   -22.68 dB     12:35 02-My Funny Valentine (Live)
DR14      -1.06 dB   -19.67 dB     10:23 03-Saudale (Live)
DR13      -1.06 dB   -18.03 dB     11:35 04-Samba de Orpheu (Live)
DR15      -1.07 dB   -19.38 dB     11:39 05-The Golden Striker (Live)
--------------------------------------------------------------------------------

Number of tracks:  5
Official DR value: DR14

Samplerate:        44100 Hz
Channels:          2
Bits per sample:   24
Bitrate:           1284 kbps
Codec:             FLAC
================================================================================
Any questions - support@pro-jazz.com. Есть вопросы - support@pro-jazz.com
19:44
260
Нет комментариев. Ваш будет первым!