Вы используете незарегистрированную версию компонента "Вкладки"!

Поиск

2020 Jade Macrae - Handle Me with Care {Jade Macrae} [24-48]

2020 Jade Macrae - Handle Me with Care {Jade Macrae} [24-48]
Битрейт аудио:
lossless
Доп. инфо:

Формат записи/Источник записи: [TR24][OF]
Наличие водяных знаков: Нет
Год издания: 2020
Издатель (лейбл): Jade Macrae
Продолжительность: 00:48:30
Наличие сканов в содержимом раздачи: Только обложка альбома
Контейнер: FLAC (*.flac)
Тип рипа: tracks
Разрядность: 24/48
Формат: PCM
Количество каналов: 2.0
Источник (релизер): qobuz.com

Лог проверки качества
foobar2000 1.4.8 / Dynamic Range Meter 1.1.1
log date: 2020-06-12 09:22:49

--------------------------------------------------------------------------------
Analyzed: Jade Macrae / Handle Me with Care
--------------------------------------------------------------------------------

DR         Peak         RMS     Duration Track
--------------------------------------------------------------------------------
DR9       -0.25 dB   -11.81 dB      3:49 01-Up Above Your Head
DR9       -0.25 dB   -10.22 dB      3:45 02-I Choose Love
DR8       -0.25 dB   -10.34 dB      5:01 03-No Matter What I Do
DR10      -0.25 dB   -11.27 dB      3:58 04-All over My Face
DR8       -0.25 dB    -9.31 dB      3:44 05-Nobody but You
DR11      -0.25 dB   -13.68 dB      5:38 06-Oh My Darling
DR11      -0.25 dB   -12.92 dB      3:30 07-Let It Ride
DR12      -0.25 dB   -13.30 dB      3:08 08-How Long
DR9       -0.25 dB   -11.60 dB      7:15 09-Handle Me with Care
DR10      -0.25 dB   -11.28 dB      3:34 10-Salt up on the Rim
DR9       -0.25 dB   -11.88 dB      5:14 11-Midnight Air
--------------------------------------------------------------------------------

Number of tracks:  11
Official DR value: DR10
Samplerate:        48000 Hz
Channels:          2
Bits per sample:   24
Bitrate:           1685 kbps
Codec:             FLAC
================================================================================
Any questions - support@pro-jazz.com. Есть вопросы - support@pro-jazz.com
19:32
275
Нет комментариев. Ваш будет первым!