Вы используете незарегистрированную версию компонента "Вкладки"!

Поиск

2020 Boney James - Solid {Concord} [24-96]

2020 Boney James - Solid {Concord} [24-96]
Стили:
Издатель (лейбл):
Битрейт аудио:
lossless
Доп. инфо:

Формат записи/Источник записи: [TR24][OF]
Наличие водяных знаков: Нет
Год издания: 2020
Продолжительность: 00:44:12
Наличие сканов в содержимом раздачи: Только обложка альбома
Контейнер: FLAC (*.flac)
Тип рипа: tracks
Разрядность: 24/96
Формат: PCM
Количество каналов: 2.0
Источник (релизер): prestomusic.com

Лог проверки качества
foobar2000 1.4.8 / Dynamic Range Meter 1.1.1
log date: 2020-06-12 12:49:52

--------------------------------------------------------------------------------
Analyzed: Boney James / Solid
--------------------------------------------------------------------------------

DR         Peak         RMS     Duration Track
--------------------------------------------------------------------------------
DR8       -0.20 dB    -9.91 dB      3:52 01-Full Effect
DR8       -0.20 dB    -9.45 dB      4:05 02-Solid
DR9       -0.20 dB   -10.92 dB      3:52 03-The Bottom Line
DR7       -0.20 dB    -9.02 dB      4:45 04-Luna
DR9       -0.55 dB   -11.24 dB      3:57 05-On The Path
DR9       -0.20 dB   -11.55 dB      3:34 06-Be Here
DR8       -0.20 dB    -9.74 dB      4:17 07-Tonic
DR8       -0.20 dB    -9.93 dB      3:39 08-Just So
DR8       -0.20 dB    -9.50 dB      3:43 09-Fresh Air
DR7       -0.20 dB    -8.70 dB      3:50 10-Sundance
DR8       -0.20 dB    -9.76 dB      4:42 11-Last Train Home
--------------------------------------------------------------------------------

Number of tracks:  11
Official DR value: DR8
Samplerate:        96000 Hz
Channels:          2
Bits per sample:   24
Bitrate:           2670 kbps
Codec:             FLAC
================================================================================
Any questions - support@pro-jazz.com. Есть вопросы - support@pro-jazz.com
20:14
277
Нет комментариев. Ваш будет первым!