Поиск

2012 Roma Trio - L' Appuntamento (2018) {Venus} [DSD64 ISO]

2012 Roma Trio - L' Appuntamento (2018) {Venus} [DSD64 ISO]
Стили:
Дата записи диска:
29 января - 30 января 2012
Место записи:
Icarus Recording Studio, Roma, Italy
Издатель (лейбл):
Номер по каталогу:
VHGD-312
Носитель:
SACD
Формат:
DSD
Тип рипа:
image
Контейнер:
ISO (*.iso)
Количество каналов:
2.0
Разрядность/ЧД:
24/96
Битрейт аудио:
lossless
Время звучания:
01:05:50
Наличие сканов:
только обложка
Релизёр (источник):
jazzy

01. My Favorite Things《 R. Rodgers 》
02. Will You Still Be Mine?《 M. Dannis, T. Adair 》
03. Estate《 B.Martino 》
04. Stablemates《 B. Golson 》
05. Song For Hara《 N. Angelucci 》
06. Cherokee《 R. Noble 》
07. Tune Up《 M. Davis 》
08. Come Prima《 M. Panzeri, S. Taccani, V. Di Paola 》
09. Easy To Love《 C. Porter 》
10. Invitation《 B. Kaper 》
11. L’Aappuntamento《 R. Carlos, E. Carlos 》

Состав:
  • Luca Mannutza – piano
  • Gianluca Renzi – bass
  • Nicola Angelucci – drums
Лог проверки качества
foobar2000 1.6.8 / Dynamic Range Meter 1.1.1
log date: 2021-12-26 18:51:47
--------------------------------------------------------------------------------
Analyzed: ROMA TRIO / L' Appuntamento
--------------------------------------------------------------------------------
DR         Peak         RMS     Duration Track
--------------------------------------------------------------------------------
DR7       -5.56 dB   -14.34 dB      3:35 01-My Favorite Things
DR6       -5.31 dB   -12.69 dB      6:27 02-Will You Still Be Mine?
DR6       -5.54 dB   -13.15 dB      7:53 03-Estate
DR6       -4.80 dB   -12.39 dB      7:45 04-Stablemates
DR6       -5.17 dB   -12.58 dB      5:04 05-Song For Hara
DR6       -5.12 dB   -12.28 dB      4:23 06-Cherokee
DR6       -4.77 dB   -12.80 dB      6:13 07-Tune Up
DR7       -5.54 dB   -14.08 dB      5:33 08-Come Prima
DR7       -4.00 dB   -12.97 dB      5:52 09-Easy To Love
DR6       -4.38 dB   -12.06 dB      7:23 10-Invitation
DR6       -4.36 dB   -12.04 dB      5:43 11-L' Appuntamento
--------------------------------------------------------------------------------
Number of tracks:  11
Official DR value: DR6
Samplerate:        2822400 Hz / PCM Samplerate: 88200 Hz
Channels:          2
Bits per sample:   1
Bitrate:           5645 kbps
Codec:             DSD64
================================================================================
Приватный:
Нет (DHT включён)
Размер:
2.65 Гб (2,847,029,809 байт) » файлов: 5
Участники:
1 раздают, 1 качают (2 участников всего)
Внешние участники:
--- [ Обновить ]
07:45
354
Нет комментариев. Ваш будет первым!