Поиск

1976 Kazuo Yashiro - Side by Side, Vol. 3 (2000) {Audio Lab} [DSD64 ISO]

1976 Kazuo Yashiro - Side by Side, Vol. 3 (2000) {Audio Lab} [DSD64 ISO]
Стили:
Дата записи диска:
29 сентября, 5 октября 1976
Место записи:
Aoyama Tower Hall; Iino Hall
Номер по каталогу:
OVXA-00006
Носитель:
SACD
Формат:
DSD
Тип рипа:
image
Контейнер:
ISO (*.iso)
Количество каналов:
2.0
Разрядность/ЧД:
64 (2,8 MHz/1 Bit)
Битрейт аудио:
lossless
Время звучания:
00:44:54
Наличие сканов:
да

01. I Know Why
02. After You’ve Gone
03. Bye Bye Baby
04. Dancing On The Ceiling
05. When You Wish Upon A Star
06. Hindustan
07. Time On My Hands
08. Honeysuckle Rose
09. Here’s That Rainy Day
10. In The Wee Small Hours Of The Morning
11. Opus De Funk

Состав:
  • Bass – M. Harada
  • Drums – H. Ishimatsu
  • Guitar – I. Shiozaki
  • Piano – Kazuo Yashiro
Лог проверки качества
foobar2000 1.6.8 / Dynamic Range Meter 1.1.1
log date: 2021-12-25 18:40:34
--------------------------------------------------------------------------------
Analyzed: K.Yashiro(p),M.Harada(b),I.Shiozaki(g),H.Ishimatsu(dr) / Side by Side Vol.3
--------------------------------------------------------------------------------
DR         Peak         RMS     Duration Track
--------------------------------------------------------------------------------
DR15     -14.29 dB   -34.61 dB      3:10 01-I know why
DR15     -10.93 dB   -29.93 dB      3:29 02-After you've gone
DR15      -8.66 dB   -29.00 dB      2:54 03-Bye bye baby
DR17     -11.12 dB   -33.09 dB      3:27 04-Dancing on the ceiling
DR15     -11.85 dB   -32.32 dB      3:03 05-When you wish upon a star
DR15      -9.63 dB   -29.40 dB      2:45 06-Hindustan
DR14     -14.10 dB   -32.60 dB      3:57 07-Time on my hands
DR17      -6.35 dB   -26.57 dB      5:46 08-Honeysuckle rose
DR17      -6.47 dB   -27.34 dB      6:22 09-Here's that rainy day
DR16     -11.63 dB   -33.05 dB      4:37 10-In the wee small hours of the morning
DR17      -6.63 dB   -27.70 dB      5:24 11-Opus de funk
--------------------------------------------------------------------------------
Number of tracks:  11
Official DR value: DR16
Samplerate:        2822400 Hz / PCM Samplerate: 88200 Hz
Channels:          2
Bits per sample:   1
Bitrate:           5645 kbps
Codec:             DSD64
================================================================================
Приватный:
Нет (DHT включён)
Размер:
1.87 Гб (2,004,582,356 байт) » файлов: 8
Участники:
0 раздают, 0 качают (0 участников всего)
Внешние участники:
12 раздают, 4 качают (16 участников всего) [ Обновить ]
16:47
432
Нет комментариев. Ваш будет первым!