Поиск

1977 Takeshi Inomata - The Dialogue (2012) {Octavia} [DSD64 ISO]

1977 Takeshi Inomata - The Dialogue (2012) {Octavia} [DSD64 ISO]
Дата переиздания диска:
25 июля 2012
Носитель:
SACD
Формат:
DSD
Тип рипа:
image
Контейнер:
ISO (*.iso)
Количество каналов:
2.0
Разрядность/ЧД:
64 (2,8 MHz/1 Bit)
Битрейт аудио:
lossless
Время звучания:
00:40:45
Наличие сканов:
да

01. The dialogue with bass
02. The dialogue with percussion
03. The dialogue with vibraphone
04. The dialogue with flute
05. The dialogue with guitar
06. The dialogue with tenor saxophone
07. The dialogue with trombone

Состав:
  •     Bass – Yasuo Arakawa
  •     Drums – Takeshi Inomata
  •     Flute – Toshiaki Yokota
  •     Guitar – Shohji Yokouchi
  •     Percussion – Makoto Aruga
  •     Tenor Saxophone – Kohnosuke Saijoh
  •     Trombone – Shigeharu Mukai
  •     Vibraphone – Ichiroh Masuda
Лог проверки качества
foobar2000 1.6.5 / Замер динамического диапазона (DR) 1.1.1
Дата отчёта:  2021-12-27 22:33:35
--------------------------------------------------------------------------------
Анализ:   Takeshi Inomata(drums) / The Dialogue
--------------------------------------------------------------------------------
DR         Пики         RMS           Продолжительность трека
--------------------------------------------------------------------------------
DR20      -3.86 дБ   -27.19 дБ      4:54 01-The dialogue with bass
DR19      -6.67 дБ   -32.06 дБ      8:10 02-The dialogue with percussion
DR21      -4.53 дБ   -31.72 дБ      6:34 03-The dialogue with vibraphone
DR19      -4.30 дБ   -28.90 дБ      4:45 04-The dialogue with flute
DR13      -7.10 дБ   -26.11 дБ      5:01 05-The dialogue with guitar
DR16      -5.69 дБ   -27.87 дБ      4:39 06-The dialogue with tenor saxophone
DR17      -2.37 дБ   -24.63 дБ      6:43 07-The dialogue with trombone
--------------------------------------------------------------------------------
Количество треков: 7
Реальные значения DR: DR18
Частота:   2822400 Гц / Частота PCM: 88200 Гц
Каналов:   2
Разрядность:   1
Битрейт:   5645 кбит/с
Кодек:   DSD64
================================================================================
17:46
487
Нет комментариев. Ваш будет первым!