Поиск

2008 Roma Trio - Ciao Chiao Bambina (2017) {Venus} [DSD64 ISO]

2008 Roma Trio - Ciao Chiao Bambina (2017) {Venus} [DSD64 ISO]
Стили:
Дата записи диска:
16 июля 2007
Место записи:
The House Recording Studio, Rome, Italy
Издатель (лейбл):
Номер по каталогу:
VHGD-258
Носитель:
SACD
Формат:
DSD
Тип рипа:
image
Контейнер:
ISO (*.iso)
Количество каналов:
2.0
Разрядность/ЧД:
64 (2,8 MHz/1 Bit)
Битрейт аудио:
lossless
Время звучания:
01:06:07
Наличие сканов:
только обложка

01. All Of You    4:55
02. Solar    4:18
03. Amarsi Un Po'    6:16
04. Anche Un Uomo    8:29
05. Moon And Sand    7:46
06. Just One Of Those Things    5:55
07. Torna A Surrient    6:52
08. Maramao Perche Sei Morto?    2:30
09. Ciao Ciao Bambina    5:56
10. That's All    5:05
11. Celestina's Waltz    7:10

Состав:
  •     Bass – Gianluca Renzi
  •     Drums – Nicola Angelucci
  •     Piano – Luca Mannutza
  •     Producer – Tetsuo Hara
Лог проверки качества
foobar2000 1.6.8 / Dynamic Range Meter 1.1.1
log date: 2021-12-26 16:57:18
--------------------------------------------------------------------------------
Analyzed: ROMA TRIO / Ciao Chiao Bambina
--------------------------------------------------------------------------------
DR         Peak         RMS     Duration Track
--------------------------------------------------------------------------------
DR7       -5.23 dB   -14.84 dB      5:01 01-All Of You
DR7       -4.89 dB   -13.20 dB      4:24 02-Solar
DR7       -4.80 dB   -13.66 dB      6:21 03-Amarsi Un Po'
DR7       -5.09 dB   -13.87 dB      8:34 04-Anche Un Uomo
DR7       -5.28 dB   -14.76 dB      7:51 05-Moon And Sand
DR7       -4.60 dB   -13.49 dB      6:01 06-Just One Of Those Things
DR7       -5.26 dB   -14.24 dB      6:58 07-Torna A Surrient
DR6       -5.21 dB   -12.92 dB      2:35 08-Maramao Oerche Sei Morto?
DR7       -5.17 dB   -13.95 dB      6:02 09-Ciao Ciao Bambina
DR7       -4.92 dB   -13.37 dB      5:10 10-That's All
DR8       -5.39 dB   -15.25 dB      7:11 11-Celestina's Waltz
--------------------------------------------------------------------------------
Number of tracks:  11
Official DR value: DR7
Samplerate:        2822400 Hz / PCM Samplerate: 88200 Hz
Channels:          2
Bits per sample:   1
Bitrate:           5645 kbps
Codec:             DSD64
================================================================================
Приватный:
Нет (DHT включён)
Размер:
2.66 Гб (2,858,867,232 байт) » файлов: 5
Участники:
0 раздают, 1 качают (1 участников всего)
Внешние участники:
--- [ Обновить ]
21:14
398
Нет комментариев. Ваш будет первым!