Поиск

2021 Simone Prattico, Klaus Mueller - Oriundo {Zamora Label} [24-88.2]

2021 Simone Prattico, Klaus Mueller - Oriundo {Zamora Label} [24-88.2]
Стили:
Дата издания диска:
12 ноября 2021
Носитель:
WEB
Формат:
PCM
Тип рипа:
tracks
Контейнер:
FLAC (*.flac)
Количество каналов:
2.0
Разрядность/ЧД:
24/88,2
Битрейт аудио:
lossless
Время звучания:
00:32:46
Наличие сканов:
только обложка

1. Quartieri Spagnoli 5:04
2. Bay Ridge 4:01
3. Push and Pull 4:25
4. Helene 3:17
5. Tanger 4:35
6. Village Debate 5:12
7. Promise Me You’ll Remember 2:57
8. That’s it 3:11

Состав:
  • SIMONE PRATTICO, drums (percussion on track 8)
  • KLAUS MUELLER, piano & Rhodes,
  • EDWARD PEREZ, bass (on 3, 4)
  • ESSIET OKON ESSIET, bass (on 1,2,5,7)

Gregor Huebner: Violin (on 2,3)
Carrie Frey: Viola (on 2,3)
Rubin Khodeli: Cello (on 2,3)
Recorded by Michael Brorby at Acoustic Recording, Brooklyn, NY
Additional recordings at Studios Ferber, Paris
String section recorded by Klaus Mueller
Audio Post-Production by Tommaso Galati
Mixed by Francesco de Nigris at NGR, Rome
Quartieri spagnoli and That’s it mixed by Klaus Mueller
Mastered by François Fanelli at Sonics Studio, Marseille
That’s it mastered by Simon Lancelot at Studios Ferber, Paris

Лог проверки качества
foobar2000 1.4.2 / Dynamic Range Meter 1.1.1
log date: 2022-01-13 08:07:42
--------------------------------------------------------------------------------
Analyzed: Simone Prattico / Oriundo
--------------------------------------------------------------------------------
DR         Peak         RMS     Duration Track
--------------------------------------------------------------------------------
DR10      -0.33 dB   -12.25 dB      5:05 01-Quartieri spagnoli
DR12      -0.34 dB   -15.87 dB      4:02 02-Bay Ridge
DR11      -0.33 dB   -13.37 dB      4:26 03-Push and Pull
DR13      -0.34 dB   -17.28 dB      3:18 04-Helene
DR12      -0.33 dB   -14.13 dB      4:35 05-Tanger
DR12      -0.33 dB   -16.20 dB      5:12 06-Village Debate
DR13      -2.62 dB   -20.13 dB      2:57 07-Promise Me You'll Remember
DR14      -0.02 dB   -16.06 dB      3:12 08-That's It
--------------------------------------------------------------------------------
Number of tracks:  8
Official DR value: DR12
Samplerate:        88200 Hz
Channels:          2
Bits per sample:   24
Bitrate:           2312 kbps
Codec:             FLAC
================================================================================
20:31
287
Нет комментариев. Ваш будет первым!