Поиск

2011 Will Bernard Trio - Outdoor Living {Direct to Disk DTD 003}

2011 Will Bernard Trio - Outdoor Living {Direct to Disk DTD 003}
Дата издания диска:
2011
Издатель (лейбл):
Номер по каталогу:
DTD 003
Носитель:
WEB
Битрейт аудио:
lossless
Аудиокодек:
FLAC (*.flac)
Тип рипа:
tracks
Время звучания:
Duration
Наличие сканов:
  • web

Треклист:

1.    Nature Walk  (5:36)
2.    Morgan Deux  (5:00)
3.    Nooksack  (5:45)
4.    6b  (4:57)
5.    Roaming Charges  (7:04)
6.    Point Blank  (3:40)
7.    Squeaky Chug Chug  (7:05)
8.    Katskan  (7:25)
9.    Implitude  (3:33)

Состав:
  • Bond Bergland    Engineer, Mixing
  • Will Bernard    Composer, Guitar
  • Wil Blades    Composer, Hammond B3
  • Simon Lott    Drums

Recording Location  San Pablo Recorders

CUETools log

[CUETools log; Date: 10.12.2017 22:12:30; Version: 2.1.5]
[CTDB TOCID: 63hV1FgSv270rKPslTZBb.nlFSQ-] found.
        [ CTDBID ] Status
        [ea639a44] (5/5) Accurately ripped
Track | CTDB Status
  1   | (5/5) Accurately ripped
  2   | (5/5) Accurately ripped
  3   | (5/5) Accurately ripped
  4   | (5/5) Accurately ripped
  5   | (5/5) Accurately ripped
  6   | (5/5) Accurately ripped
  7   | (5/5) Accurately ripped
  8   | (5/5) Accurately ripped
  9   | (5/5) Accurately ripped
[AccurateRip ID: 00113194-007eae26-8b0bc109] found.
Track   [  CRC   |   V2   ] Status
 01     [53bd49ca|bf481bdc] (0+0/4) No match
 02     [7fec486a|029df5da] (0+0/4) No match
 03     [b716c69d|0a68f4ff] (0+0/4) No match
 04     [925f86e7|e8ebbca3] (0+0/4) No match
 05     [3938ec33|2f73cdd4] (0+0/4) No match
 06     [daf79145|86a44a0b] (0+0/4) No match
 07     [86bc5e20|2a4163f3] (0+0/4) No match
 08     [8c7c440f|abae44a7] (0+0/4) No match
 09     [62886706|87a3e50f] (0+0/4) No match
Offsetted by 102:
 01     [cd2fce48] (0/4) No match (V2 was not tested)
 02     [5f56cd2b] (0/4) No match (V2 was not tested)
 03     [6d1d0bc4] (0/4) No match (V2 was not tested)
 04     [6daddc27] (0/4) No match (V2 was not tested)
 05     [9a69dcb7] (0/4) No match (V2 was not tested)
 06     [a0880905] (0/4) No match (V2 was not tested)
 07     [f3c9a5d2] (0/4) No match (V2 was not tested)
 08     [3331d02b] (0/4) No match (V2 was not tested)
 09     [a9207216] (0/4) No match (V2 was not tested)

Track Peak [ CRC32  ] [W/O NULL] 
  —   88,2 [18A678E9] [D222E379]           
 01   88,2 [7A2EF773] [17F6F87C]           
 02   88,2 [702F4270] [43574E07]           
 03   88,2 [08C7A3CD] [129A20D4]           
 04   88,2 [6ED8CFED] [D54E2F07]           
 05   88,2 [F4C3F811] [6ADE5B76]           
 06   88,2 [22943505] [FF82D7C2]           
 07   88,2 [ABD60CF8] [2D291159]           
 08   88,2 [D2248FEB] [B1C22E3A]           
 09   87,2 [B82EEA56] [18F8163A]           
 

 

Лог проверки качества
CUE Corrector v. 8.3.3 / b. 828 (Nov. 14, 2017)
————————————————————————————————————————————————————————————————————————
Will Bernard Trio / Outdoor Living

Folder: 2011 Will Bernard Trio - Outdoor Living {Dreck to Disk DTD 003}
Audio files:
    01. Will Bernard Trio - Nature Walk.flac [05:36.907; FLAC • 738 kbps • 16 bit \ 44100 Hz • stereo; 29.66 MB (31 102 209 B)]
    02. Will Bernard Trio - Morgan Deux.flac [05:00.160; FLAC • 778 kbps • 16 bit \ 44100 Hz • stereo; 27.85 MB (29 203 676 B)]
    03. Will Bernard Trio - Nooksack.flac [05:45.760; FLAC • 699 kbps • 16 bit \ 44100 Hz • stereo; 28.83 MB (30 225 349 B)]
    04. Will Bernard Trio - 6B.flac [04:57.227; FLAC • 648 kbps • 16 bit \ 44100 Hz • stereo; 22.97 MB (24 089 918 B)]
    05. Will Bernard Trio - Roaming Charges.flac [07:04.907; FLAC • 711 kbps • 16 bit \ 44100 Hz • stereo; 36.05 MB (37 798 785 B)]
    06. Will Bernard Trio - Point Blank.flac [03:40.373; FLAC • 658 kbps • 16 bit \ 44100 Hz • stereo; 17.30 MB (18 140 542 B)]
    07. Will Bernard Trio - Squeaky Chug Chug.flac [07:05.587; FLAC • 705 kbps • 16 bit \ 44100 Hz • stereo; 35.82 MB (37 557 258 B)]
    08. Will Bernard Trio - Katskan.flac [07:25.093; FLAC • 850 kbps • 16 bit \ 44100 Hz • stereo; 45.15 MB (47 338 958 B)]
    09. Will Bernard Trio - Implitude.flac [03:33.960; FLAC • 813 kbps • 16 bit \ 44100 Hz • stereo; 20.75 MB (21 754 203 B)]

Accuracy: -m0

File 01. Will Bernard Trio - Nature Walk       - 100% CDDA [05:36:68]
File 02. Will Bernard Trio - Morgan Deux       - 100% CDDA [05:00:12]
File 03. Will Bernard Trio - Nooksack          -  43% CDDA [05:45:57]
File 04. Will Bernard Trio - 6B                -  86% CDDA [04:57:17]
File 05. Will Bernard Trio - Roaming Charges   - 100% CDDA [07:04:68]
File 06. Will Bernard Trio - Point Blank       - 100% MPEG [03:40:28]
File 07. Will Bernard Trio - Squeaky Chug Chug - 100% CDDA [07:05:44]
File 08. Will Bernard Trio - Katskan           - 100% CDDA [07:25:07]
File 09. Will Bernard Trio - Implitude         - 100% CDDA [03:33:72]
————— Summary: —————
Could not qualify the source of these tracks.
————————————————————————————————————————————————————————————————————————

ANALYZER:
    auCDtect: CD records authenticity detector, version 0.8.2
    Copyright (c) 2004 Oleg Berngardt. All rights reserved.
    Copyright (c) 2004 Alexander Djourik. All rights reserved.

Time elapsed: 2 m 21 s
Log created at December 10, 2017 22:38:22

=== 100587A23880A2E151D21E1CD789F6E94549E06FDE9755266C321BEF303435EC ===
23:45
53
RSS
Нет комментариев. Ваш будет первым!