Поиск

2017 Tommy Emmanuel & David Grisman - Pickin' {Acoustic Disc ACD-50054}

2017 Tommy Emmanuel & David Grisman - Pickin' {Acoustic Disc ACD-50054}
Стили:
Дата издания диска:
3 ноября 2017
Издатель (лейбл):
Номер по каталогу:
ACD-50054
Носитель:
CD
Битрейт аудио:
lossless
Аудиокодек:
FLAC (*.flac)
Тип рипа:
image+.cue
Время звучания:
00:45:02
Наличие сканов:
  • да
Релизёр (источник):
Sket4er

Треклист:

01. Zorro's Last Ride
02. Cinderella's Fella
03. CGP & Dawg
04. Farm & Fun Time
05. Newly Wedding
06. Sweet Georgia Brown
07. Standing Rock
08. Dawg's Waltz
09. Tipsy Gypsy
10. Tracy's Tune
11. Port Townsend Blues
12. Waltzing Matilda

Состав:

Tommy Emmanuel    Guitar
David Grisman    Mandolin

Лог создания рипа
Exact Audio Copy V1.1 from 23. June 2015

EAC extraction logfile from 8. December 2017, 20:42

Tommy Emmanuel & David Grisman / Pickin'

Used drive  : TSSTcorpCDDVDW SH-224DB   Adapter: 1  ID: 0

Read mode               : Secure
Utilize accurate stream : Yes
Defeat audio cache      : Yes
Make use of C2 pointers : No

Read offset correction                      : 6
Overread into Lead-In and Lead-Out          : No
Fill up missing offset samples with silence : Yes
Delete leading and trailing silent blocks   : No
Null samples used in CRC calculations       : Yes
Used interface                              : Native Win32 interface for Win NT & 2000

Used output format              : User Defined Encoder
Selected bitrate                : 1024 kBit/s
Quality                         : High
Add ID3 tag                     : No
Command line compressor         : C:\Program Files (x86)\Exact Audio Copy\win64\flac.exe
Additional command line options : -8 -V -T "ARTIST=%artist%" -T "TITLE=%title%" -T "ALBUM=%albumtitle%" -T "DATE=%year%" -T "TRACKNUMBER=%tracknr%" -T "GENRE=%genre%" -T "COMMENT=%comment%" %source% -o %dest%

TOC of the extracted CD

     Track |   Start  |  Length  | Start sector | End sector
    ---------------------------------------------------------
        1  |  0:00.00 |  3:12.73 |         0    |    14472
        2  |  3:12.73 |  3:23.65 |     14473    |    29762
        3  |  6:36.63 |  4:52.49 |     29763    |    51711
        4  | 11:29.37 |  3:10.38 |     51712    |    65999
        5  | 14:40.00 |  4:40.18 |     66000    |    87017
        6  | 19:20.18 |  3:53.49 |     87018    |   104541
        7  | 23:13.67 |  3:54.28 |    104542    |   122119
        8  | 27:08.20 |  3:45.66 |    122120    |   139060
        9  | 30:54.11 |  3:15.69 |    139061    |   153754
       10  | 34:10.05 |  5:22.09 |    153755    |   177913
       11  | 39:32.14 |  3:11.20 |    177914    |   192258
       12  | 42:43.34 |  2:18.67 |    192259    |   202675

Range status and errors

Selected range

     Filename F:\Sket4er\Tommy Emmanuel & David Grisman – Pickin’  2017\Tommy Emmanuel & David Grisman - Pickin'.wav

     Peak level 100.0 %
     Extraction speed 3.0 X
     Range quality 100.0 %
     Test CRC 9FAB9BCC
     Copy CRC 9FAB9BCC
     Copy OK

No errors occurred

AccurateRip summary

Track  1  not present in database
Track  2  not present in database
Track  3  not present in database
Track  4  not present in database
Track  5  not present in database
Track  6  not present in database
Track  7  not present in database
Track  8  not present in database
Track  9  not present in database
Track 10  not present in database
Track 11  not present in database
Track 12  not present in database

None of the tracks are present in the AccurateRip database

End of status report

---- CUETools DB Plugin V2.1.6

[CTDB TOCID: E8dpbAWuKUjGO0ghdlFUNgzPJvs-] found
Submit result: E8dpbAWuKUjGO0ghdlFUNgzPJvs- has been confirmed
Track | CTDB Status
  1   | (3/3) Accurately ripped
  2   | (3/3) Accurately ripped
  3   | (3/3) Accurately ripped
  4   | (3/3) Accurately ripped
  5   | (3/3) Accurately ripped
  6   | (3/3) Accurately ripped
  7   | (3/3) Accurately ripped
  8   | (3/3) Accurately ripped
  9   | (3/3) Accurately ripped
 10   | (3/3) Accurately ripped
 11   | (3/3) Accurately ripped
 12   | (3/3) Accurately ripped

==== Log checksum 89D1478839A7A67EB9B4F7F05593793B33B35A9B4B9BC17C75B99EB4286714A3 ====
Содержание индексной карты (.CUE)
REM GENRE Acoustic
REM DATE 2017
REM DISCID AB0A8E0C
REM COMMENT "ExactAudioCopy v1.1"
PERFORMER "Tommy Emmanuel & David Grisman"
TITLE "Pickin'"
FILE "Tommy Emmanuel & David Grisman - Pickin'.flac" WAVE
  TRACK 01 AUDIO
    TITLE "Zorro's Last Ride"
    PERFORMER "Tommy Emmanuel & David Grisman"
    INDEX 01 00:00:00
  TRACK 02 AUDIO
    TITLE "Cinderella's Fella"
    PERFORMER "Tommy Emmanuel & David Grisman"
    INDEX 01 03:12:73
  TRACK 03 AUDIO
    TITLE "CGP & Dawg"
    PERFORMER "Tommy Emmanuel & David Grisman"
    INDEX 01 06:36:63
  TRACK 04 AUDIO
    TITLE "Farm & Fun Time"
    PERFORMER "Tommy Emmanuel & David Grisman"
    INDEX 01 11:29:37
  TRACK 05 AUDIO
    TITLE "Newly Wedding"
    PERFORMER "Tommy Emmanuel & David Grisman"
    INDEX 01 14:40:00
  TRACK 06 AUDIO
    TITLE "Sweet Georgia Brown"
    PERFORMER "Tommy Emmanuel & David Grisman"
    INDEX 01 19:20:18
  TRACK 07 AUDIO
    TITLE "Standing Rock"
    PERFORMER "Tommy Emmanuel & David Grisman"
    INDEX 01 23:13:67
  TRACK 08 AUDIO
    TITLE "Dawg's Waltz"
    PERFORMER "Tommy Emmanuel & David Grisman"
    INDEX 01 27:08:20
  TRACK 09 AUDIO
    TITLE "Tipsy Gypsy"
    PERFORMER "Tommy Emmanuel & David Grisman"
    INDEX 01 30:54:11
  TRACK 10 AUDIO
    TITLE "Tracy's Tune"
    PERFORMER "Tommy Emmanuel & David Grisman"
    INDEX 01 34:10:05
  TRACK 11 AUDIO
    TITLE "Port Townsend Blues"
    PERFORMER "Tommy Emmanuel & David Grisman"
    INDEX 01 39:32:14
  TRACK 12 AUDIO
    TITLE "Waltzing Matilda"
    PERFORMER "Tommy Emmanuel & David Grisman"
    INDEX 01 42:43:34
Лог проверки качества
-----------------------

DON'T MODIFY THIS FILE

-----------------------

PERFORMER: auCDtect Task Manager, ver. 1.5.1RC4 build 1.5.1.5
Copyright (c) 2008-2010 y-soft. All rights reserved
http://y-soft.org

ANALYZER: auCDtect: CD records authenticity detector, version 0.8.2
Copyright (c) 2004 Oleg Berngardt. All rights reserved.
Copyright (c) 2004 Alexander Djourik. All rights reserved.

FILE: Tommy Emmanuel & David Grisman - Pickin'.flac
  Size: 236177829 Hash: 33E8B8EDC1E6E05F088354554575D6A5 Accuracy: -m0
  Conclusion: CDDA 100%
  Signature: E0DC58FD7BF4E62D03EF9E8999614E61444AED6A
00:19
41
RSS
Нет комментариев. Ваш будет первым!