Вы используете незарегистрированную версию компонента "Вкладки"!

Поиск

2011 Olivia Trummer - Poesiealbum {Neuklang} [24-44,1]

2011 Olivia Trummer - Poesiealbum {Neuklang} [24-44,1]
Стили:
Издатель (лейбл):
Битрейт аудио:
lossless
Доп. инфо:

Формат записи/Источник записи: [TR24][OF]
Наличие водяных знаков: Нет
Год издания/переиздания диска: 2011
Жанр: Post-Bop, Vocal Jazz
Издатель (лейбл): Neuklang
Продолжительность: 00:57:28
Наличие сканов в содержимом раздачи: Буклет PDF

Контейнер: FLAC (*.flac)
Тип рипа: tracks
Разрядность: 24/44,1
Формат: PCM
Количество каналов: 2.0

Источник (релизер): redacted <-- qobuz

Лог проверки качества
foobar2000 1.5.4 / Dynamic Range Meter 1.1.1
log date: 2020-06-29 20:59:39

--------------------------------------------------------------------------------
Analyzed: Olivia Trummer / Poesiealbum
--------------------------------------------------------------------------------

DR         Peak         RMS     Duration Track
--------------------------------------------------------------------------------
DR13      -0.34 dB   -16.62 dB      6:14 01-Meer ohne Wasser
DR11      -3.29 dB   -20.62 dB      1:45 02-Requiem
DR10      -0.90 dB   -15.51 dB      7:43 03-Es ist windig heut'
DR14      -0.87 dB   -17.72 dB      6:33 04-500 Millionen
DR12      -2.15 dB   -18.74 dB      5:03 05-Fur ein Lacheln
DR12      -0.38 dB   -15.87 dB      6:42 06-Stehaufmannchen
DR14      -1.46 dB   -19.22 dB      6:19 07-Ohne Winter
DR12      -0.36 dB   -14.77 dB      9:37 08-Verruckt
DR12      -1.13 dB   -17.75 dB      7:32 09-Die Liebe
--------------------------------------------------------------------------------

Number of tracks:  9
Official DR value: DR12

Samplerate:        44100 Hz
Channels:          2
Bits per sample:   24
Bitrate:           1283 kbps
Codec:             FLAC
================================================================================
Any questions - support@pro-jazz.com. Есть вопросы - support@pro-jazz.com
07:13
260
Нет комментариев. Ваш будет первым!