Вы используете незарегистрированную версию компонента "Вкладки"!

Поиск

2015 Olivia Trummer - Classical to Jazz One {Neuklang} [24-96]

2015 Olivia Trummer - Classical to Jazz One {Neuklang} [24-96]
Издатель (лейбл):
Битрейт аудио:
lossless
Доп. инфо:

Формат записи/Источник записи: [TR24][OF]
Наличие водяных знаков: Нет
Год издания/переиздания диска: 2015
Продолжительность: 01:09:15
Наличие сканов в содержимом раздачи: Буклет PDF

Контейнер: FLAC (*.flac)
Тип рипа: tracks
Разрядность: 24/96
Формат: PCM
Количество каналов: 2.0

Источник (релизер): redacted <-- qobuz

Лог проверки качества
foobar2000 1.5.4 / Dynamic Range Meter 1.1.1
log date: 2020-06-29 20:41:28

--------------------------------------------------------------------------------
Analyzed: Olivia Trummer / Classical to Jazz One
--------------------------------------------------------------------------------

DR         Peak         RMS     Duration Track
--------------------------------------------------------------------------------
DR8       -0.72 dB   -11.96 dB      5:57 01-Scarlattacca
DR10      -0.72 dB   -15.77 dB      8:17 02-Mozartlichkeiten Suite: Part I
DR12      -2.91 dB   -20.23 dB      2:05 03-Mozartlichkeiten Suite: Transition Piano
DR13      -0.72 dB   -18.13 dB      4:43 04-Mozartlichkeiten Suite: Part II
DR10      -7.64 dB   -25.83 dB      1:16 05-Mozartlichkeiten Suite: Transition Vibraphone
DR10      -0.72 dB   -13.35 dB      4:34 06-Mozartlichkeiten Suite: Part III
DR8       -0.72 dB   -12.12 dB      5:07 07-Paraphrase on Partita Nr.1 by J.S. Bach: Praeludio
DR10      -0.72 dB   -14.54 dB      7:21 08-Paraphrase on Partita Nr.1 by J.S. Bach: Almundo
DR10      -0.72 dB   -13.72 dB      4:47 09-Paraphrase on Partita Nr.1 by J.S. Bach: Correntano
DR12      -0.72 dB   -16.86 dB      6:15 10-Paraphrase on Partita Nr.1 by J.S. Bach: Vagabande
DR10      -0.72 dB   -15.79 dB      7:33 11-Paraphrase on Partita Nr.1 by J.S. Bach: Menduett
DR9       -0.72 dB   -13.96 dB      2:12 12-Paraphrase on Partita Nr.1 by J.S. Bach: Reprise
DR9       -0.72 dB   -13.54 dB      5:14 13-Paraphrase on Partita Nr.1 by J.S. Bach: Gigue Chic
DR10      -0.72 dB   -14.22 dB      3:54 14-Autumn Again
--------------------------------------------------------------------------------

Number of tracks:  14
Official DR value: DR10

Samplerate:        96000 Hz
Channels:          2
Bits per sample:   24
Bitrate:           2328 kbps
Codec:             FLAC
================================================================================
Any questions - support@pro-jazz.com. Есть вопросы - support@pro-jazz.com
19:31
261
Нет комментариев. Ваш будет первым!