Поиск

2008 Olivia Trummer Trio - Westwind {Neuklang} [24-44,1]

2008 Olivia Trummer Trio - Westwind {Neuklang} [24-44,1]
Стили:
Издатель (лейбл):
Битрейт аудио:
lossless
Треклист:

01. Es geht los (Trummer) - 6:22
02. Westwind (Trummer) - 7:37
03. ICE (Trummer) - 6:58
04. Sternklar war die Nacht (Trummer) - 7:16
05. Mozartlichkeit (Trummer) - 8:56
06. Dein Brief (Trummer) - 6:44
07. Windgetragen (Trummer) - 6:21
08. Tagtraum (Trummer) - 8:07

Состав:
  • Olivia Trummer — piano
  • Joel Locher — bass
  • Bodek Janke — drums, percussion
  • Matthias Schriefl — trumpet, flugelhorn

Recorded at Bauer Studios, Ludwigsburg on December 27-29, 2007.

Доп. инфо:

Формат записи/Источник записи: [TR24][OF]
Наличие водяных знаков: Нет
Год издания/переиздания диска: 2008
Продолжительность: 00:58:21
Наличие сканов в содержимом раздачи: Буклет PDF

Контейнер: FLAC (*.flac)
Тип рипа: tracks
Разрядность: 24/44,1
Формат: PCM
Количество каналов: 2.0

Источник (релизер): orpheus <-- qobuz

Лог проверки качества
foobar2000 1.5.4 / Dynamic Range Meter 1.1.1
log date: 2020-06-29 21:17:41

--------------------------------------------------------------------------------
Analyzed: Olivia Trummer / Westwind
--------------------------------------------------------------------------------

DR         Peak         RMS     Duration Track
--------------------------------------------------------------------------------
DR9       -1.22 dB   -12.70 dB      6:22 01-Es geht los
DR11      -0.22 dB   -13.72 dB      7:37 02-Westwind
DR10      -0.22 dB   -13.45 dB      6:58 03-ICE
DR10      -0.23 dB   -14.69 dB      7:16 04-Sternklar war die Nacht
DR10      -0.22 dB   -13.66 dB      8:56 05-Mozartlichkeit
DR13      -0.24 dB   -18.21 dB      6:44 06-Dein Brief
DR10      -0.23 dB   -12.11 dB      6:21 07-Windgetragen
DR15      -0.24 dB   -20.45 dB      8:07 08-Tagtraum
--------------------------------------------------------------------------------

Number of tracks:  8
Official DR value: DR11

Samplerate:        44100 Hz
Channels:          2
Bits per sample:   24
Bitrate:           871 kbps
Codec:             FLAC
================================================================================
По всем вопросам пишите личное сообщение пользователю M0p94ok.
09:07
457
Нет комментариев. Ваш будет первым!