Вы используете незарегистрированную версию компонента "Вкладки"!

Поиск

2011 Ida Sand - The Gospel Truth {ACT Music} [24-88,2]

2011 Ida Sand - The Gospel Truth {ACT Music} [24-88,2]
Стили:
Издатель (лейбл):
Доп. инфо:

Формат записи/Источник записи: [TR24][OF]
Наличие водяных знаков: Нет
Год издания/переиздания диска: 2011/2012
Продолжительность: 48:28
Наличие сканов в содержимом раздачи: Буклет PDF

Контейнер: FLAC (*.flac)
Тип рипа: tracks
Разрядность: 24/88,2
Формат: PCM
Количество каналов: 2.0

Источник: highresaudio.com

Лог проверки качества
foobar2000 1.3.9 / Dynamic Range Meter 1.1.1
log date: 2019-12-30 15:56:05

--------------------------------------------------------------------------------
Analyzed: Ida Sand / The Gospel Truth
--------------------------------------------------------------------------------

DR         Peak         RMS     Duration Track
--------------------------------------------------------------------------------
DR9       -0.73 dB   -11.04 dB      3:33 01-Eyes On The Prize
DR9       -0.73 dB   -11.84 dB      3:45 02-Ain't No Sunshine
DR8       -0.73 dB   -10.80 dB      4:12 03-He Ain't Heavy, He's My Brother
DR10      -0.73 dB   -13.17 dB      4:32 04-A Change Is Gonna Come
DR8       -0.73 dB   -10.95 dB      3:37 05-Have A Talk With God
DR9       -0.73 dB   -10.99 dB      4:50 06-I Wanna Know What Love Is
DR9       -0.73 dB   -12.26 dB      3:15 07-Until The End
DR8       -0.73 dB   -11.26 dB      4:14 08-I Wish I Would Know How
DR9       -0.73 dB   -12.20 dB      4:22 09-Have A Little Faith In Me
DR9       -0.73 dB   -10.68 dB      3:49 10-It Is To Know
DR8       -0.73 dB   -10.91 dB      4:00 11-Like A Prayer
DR11      -0.73 dB   -14.82 dB      4:16 12-God Only Knows
--------------------------------------------------------------------------------

Number of tracks:  12
Official DR value: DR9

Samplerate:        88200 Hz
Channels:          2
Bits per sample:   24
Bitrate:           2497 kbps
Codec:             FLAC
================================================================================
Any questions - support@pro-jazz.com. Есть вопросы - support@pro-jazz.com
11:23
289
Нет комментариев. Ваш будет первым!