Вы используете незарегистрированную версию компонента "Вкладки"!

Поиск

1980 Enrico Rava - Ah (2019) {ECM 1166} [24-96]

1980 Enrico Rava - Ah (2019) {ECM 1166} [24-96]
Стили:
Дата записи диска:
декабрь 1979
Место записи:
Tonstudio Bauer, Ludwigsburg
Дата издания диска:
1 сентября 1980
Дата переиздания диска:
2019
Издатель (лейбл):
Номер по каталогу:
1166
Носитель:
WEB
Формат:
PCM
Тип рипа:
tracks+.cue
Контейнер:
FLAC (*.flac)
Количество каналов:
2.0
Разрядность/ЧД:
24/96
Время звучания:
00:38:56
Наличие сканов:
web
Страна-производитель диска (релиза):
Germany
Релизёр (источник):
M0p94ok
Лог проверки качества
foobar2000 1.3.7 / Dynamic Range Meter 1.1.1
log date: 2019-08-02 02:15:33

--------------------------------------------------------------------------------
Analyzed: Enrico Rava / Ah
--------------------------------------------------------------------------------

DR         Peak         RMS     Duration Track
--------------------------------------------------------------------------------
DR12      -1.01 dB   -16.24 dB      8:17 01-Lulu
DR13      -0.70 dB   -15.80 dB      6:24 02-Outsider
DR15      -0.70 dB   -19.31 dB      5:09 03-Small Talk
DR12      -0.71 dB   -17.12 dB      4:59 04-Rose Selavy
DR13      -0.71 dB   -16.87 dB      6:07 05-Ah
DR14      -1.46 dB   -19.91 dB      2:52 06-Trombonauta
DR13      -0.74 dB   -17.39 dB      5:56 07-At The Movies
--------------------------------------------------------------------------------

Number of tracks:  7
Official DR value: DR13

Samplerate:        96000 Hz
Channels:          2
Bits per sample:   24
Bitrate:           2907 kbps
Codec:             FLAC
================================================================================
Any questions - support@pro-jazz.com. Есть вопросы - support@pro-jazz.com
16:00
349
Нет комментариев. Ваш будет первым!