Вы используете незарегистрированную версию компонента "Вкладки"!

Поиск

2015 Torsten Goods - Thank You Baby! {ACT Music} [24-96]

2015 Torsten Goods - Thank You Baby! {ACT Music} [24-96]
Стили:
Издатель (лейбл):
Доп. инфо:

Формат записи/Источник записи: [TR24][OF]
Наличие водяных знаков: Нет
Год издания/переиздания диска: 2015
Продолжительность: 51:50
Наличие сканов в содержимом раздачи: Буклет PDF

Контейнер: FLAC (*.flac)
Тип рипа: tracks
Разрядность: 24/96
Формат: PCM
Количество каналов: 2.0

Источник: highresaudio.com

Лог проверки качества
foobar2000 1.3.9 / Dynamic Range Meter 1.1.1
log date: 2019-12-30 15:26:13

--------------------------------------------------------------------------------
Analyzed: Torsten Goods / Thank You Baby!
--------------------------------------------------------------------------------

DR         Peak         RMS     Duration Track
--------------------------------------------------------------------------------
DR8       -0.72 dB   -10.56 dB      3:27 01-Work Song
DR8       -0.72 dB   -10.77 dB      4:21 02-Brother, Where Are You
DR7       -0.72 dB    -9.92 dB      3:31 03-Midst Of Your Love
DR7       -0.72 dB   -10.08 dB      3:50 04-How Sweet It Is
DR8       -0.72 dB   -11.05 dB      4:52 05-Lord, I Need A Woman
DR7       -0.72 dB   -11.19 dB      3:46 06-Kyrie
DR9       -0.72 dB   -10.84 dB      4:36 07-Nobody Knows The Trouble I've Seen
DR8       -0.72 dB    -9.71 dB      3:14 08-Hallelujah, I Love Her So
DR9       -0.72 dB   -12.04 dB      4:13 09-Angel
DR8       -0.72 dB   -10.43 dB      3:33 10-Sing Hallelujah
DR10      -0.72 dB   -12.63 dB      4:46 11-Afro Blue
DR12      -0.98 dB   -15.70 dB      3:28 12-Where Did You Sleep Last Night
DR8       -0.72 dB   -11.34 dB      4:12 13-Everything Must Change
--------------------------------------------------------------------------------

Number of tracks:  13
Official DR value: DR8

Samplerate:        96000 Hz
Channels:          2
Bits per sample:   24
Bitrate:           2894 kbps
Codec:             FLAC
================================================================================
Any questions - support@pro-jazz.com. Есть вопросы - support@pro-jazz.com
22:56
244
Нет комментариев. Ваш будет первым!