Поиск

2011 Billy Bang's Survival Ensemble - Black Man’s Blues, New York Collage {NoBusiness NBCD30-31} [2CD]

2011 Billy Bang's Survival Ensemble - Black Man’s Blues, New York Collage {NoBusiness NBCD30-31} [2CD]

CD1 Black Man’s Blues 1977 (01:12:35)
1 Spoken Introduction 1:07
2 Albert Ayler/Know Your Enemy 19:27
3 Ganges/Enchantment/Tapestry 30:47
4 Black Man Blues 18:27

CD2 New York Collage 1978 (00:44:36)
1 Nobody Hear The Music The Same Way (Dedicated To John Coltrane) 12:17
2 For Josie Part II 10:28
3 Illustration 8:22
4 Subhanallah 14:35

Жанр: Free Improvisation
Носитель: CD
Страна-производитель диска (релиза): Lithuania
Год издания: 2011
Издатель (лейбл): NoBusiness Records
Номер по каталогу: NBCD30-31
Аудиокодек: FLAC (*.flac)
Тип рипа: tracks+.cue
Битрейт аудио: lossless
Продолжительность: 00:00:00
Источник: локальная сеть
Наличие сканов в содержимом раздачи: нет

Лог создания рипа
CD1
X Lossless Decoder version 20141129a (148.2)

XLD extraction logfile from 2015-11-02 14:39:39 +0300

Billy Bang's Survival Ensemble / Black Man's Blues

Used drive : HL-DT-ST DVDRW  GX30N (revision RP09)
Media type : Pressed CD

Ripper mode             : XLD Secure Ripper
Disable audio cache     : OK for the drive with a cache less than 1375KiB
Make use of C2 pointers : NO
Read offset correction  : 6
Max retry count         : 400
Gap status              : Analyzed, Appended (except HTOA)

TOC of the extracted CD
     Track |   Start  |  Length  | Start sector | End sector
    ---------------------------------------------------------
        1  | 00:00:00 | 01:09:00 |         0    |     5174
        2  | 01:09:00 | 19:29:23 |      5175    |    92872
        3  | 20:38:23 | 30:46:62 |     92873    |   231384
        4  | 51:25:10 | 21:10:36 |    231385    |   326670

AccurateRip Summary
    Disc not found in AccurateRip DB.

All Tracks
    Album gain               : -4.13 dB
    Peak                     : 0.966248
    Statistics
        Read error                           : 0
        Jitter error (maybe fixed)           : 0
        Retry sector count                   : 0
        Damaged sector count                 : 0

Track 01
    Filename : /Users/BK/Music/Grabbed/Billy Bang's Survival Ensemble/F 1977 - Black Man's Blues/01/01 - Spoken Introduction.flac
    Pre-gap length : 00:02:00

    Track gain               : -0.33 dB
    Peak                     : 0.883179
    CRC32 hash (test run)    : 9C5C31F3
    CRC32 hash               : 9C5C31F3
    CRC32 hash (skip zero)   : CA7CFAE5
    AccurateRip v1 signature : EF9FE7CC
    AccurateRip v2 signature : 60440C82
        ->Track not present in AccurateRip database.
    Statistics
        Read error                           : 0
        Jitter error (maybe fixed)           : 0
        Retry sector count                   : 0
        Damaged sector count                 : 0

Track 02
    Filename : /Users/BK/Music/Grabbed/Billy Bang's Survival Ensemble/F 1977 - Black Man's Blues/01/02 - Albert Ayler & Know Your Enemy.flac
    Pre-gap length : 00:02:00

    Track gain               : -4.23 dB
    Peak                     : 0.966187
    CRC32 hash (test run)    : DF3CE709
    CRC32 hash               : DF3CE709
    CRC32 hash (skip zero)   : FD197B51
    AccurateRip v1 signature : 11D16E99
    AccurateRip v2 signature : 0DB83467
        ->Track not present in AccurateRip database.
    Statistics
        Read error                           : 0
        Jitter error (maybe fixed)           : 0
        Retry sector count                   : 0
        Damaged sector count                 : 0

Track 03
    Filename : /Users/BK/Music/Grabbed/Billy Bang's Survival Ensemble/F 1977 - Black Man's Blues/01/03 - Ganges & Enchantment & Tapestry.flac
    Pre-gap length : 00:03:00

    Track gain               : -3.80 dB
    Peak                     : 0.966217
    CRC32 hash (test run)    : A00FC2B9
    CRC32 hash               : A00FC2B9
    CRC32 hash (skip zero)   : 2D1B70F1
    AccurateRip v1 signature : 7450C9BA
    AccurateRip v2 signature : A90D8649
        ->Track not present in AccurateRip database.
    Statistics
        Read error                           : 0
        Jitter error (maybe fixed)           : 0
        Retry sector count                   : 0
        Damaged sector count                 : 0

Track 04
    Filename : /Users/BK/Music/Grabbed/Billy Bang's Survival Ensemble/F 1977 - Black Man's Blues/01/04 - Black Man's Blues.flac

    Track gain               : -4.51 dB
    Peak                     : 0.966248
    CRC32 hash (test run)    : 954CDD08
    CRC32 hash               : 954CDD08
    CRC32 hash (skip zero)   : 91826E8E
    AccurateRip v1 signature : 613F56AB
    AccurateRip v2 signature : 2DFE9276
        ->Track not present in AccurateRip database.
    Statistics
        Read error                           : 0
        Jitter error (maybe fixed)           : 0
        Retry sector count                   : 0
        Damaged sector count                 : 0

No errors occurred

End of status report

-----BEGIN XLD SIGNATURE-----
e5eXkI4JIW_Nu8W1L1UL6gTxjRqhj.d4tXQBWtPLVCVT.f1nakuVowhb2j7nG7.IlSznR.bevTPKuX9SB8PIhreVEZvIRpYfjp2CCym
-----END XLD SIGNATURE-----

CD2
X Lossless Decoder version 20141129a (148.2)

XLD extraction logfile from 2015-11-02 16:00:37 +0300

Billy Bang's Survival Ensemble / New York Collage

Used drive : HL-DT-ST DVDRW  GX30N (revision RP09)
Media type : Pressed CD

Ripper mode             : XLD Secure Ripper
Disable audio cache     : OK for the drive with a cache less than 1375KiB
Make use of C2 pointers : NO
Read offset correction  : 6
Max retry count         : 400
Gap status              : Analyzed, Appended (except HTOA)

TOC of the extracted CD
     Track |   Start  |  Length  | Start sector | End sector
    ---------------------------------------------------------
        1  | 00:00:00 | 12:11:28 |         0    |    54852
        2  | 12:11:28 | 09:53:10 |     54853    |    99337
        3  | 22:04:38 | 08:15:49 |     99338    |   136511
        4  | 30:20:12 | 14:16:35 |    136512    |   200746

AccurateRip Summary
    Disc not found in AccurateRip DB.

All Tracks
    Album gain               : -2.96 dB
    Peak                     : 0.966034
    Statistics
        Read error                           : 0
        Jitter error (maybe fixed)           : 0
        Retry sector count                   : 0
        Damaged sector count                 : 0

Track 01
    Filename : /Users/BK/Music/Grabbed/Billy Bang's Survival Ensemble/F 1978 - New York Collage/02/01 - Nobody Hear The Music The Same Way (Dedicated To John Coltrane).flac
    Pre-gap length : 00:02:00

    Track gain               : -3.29 dB
    Peak                     : 0.966034
    CRC32 hash (test run)    : 80E6D77D
    CRC32 hash               : 80E6D77D
    CRC32 hash (skip zero)   : DC2C7731
    AccurateRip v1 signature : DB9DFEBF
    AccurateRip v2 signature : 958DAB7E
        ->Track not present in AccurateRip database.
    Statistics
        Read error                           : 0
        Jitter error (maybe fixed)           : 0
        Retry sector count                   : 0
        Damaged sector count                 : 0

Track 02
    Filename : /Users/BK/Music/Grabbed/Billy Bang's Survival Ensemble/F 1978 - New York Collage/02/02 - For Josie Part II.flac
    Pre-gap length : 00:03:00

    Track gain               : -2.73 dB
    Peak                     : 0.965973
    CRC32 hash (test run)    : A52ADD27
    CRC32 hash               : A52ADD27
    CRC32 hash (skip zero)   : 0CF0C963
    AccurateRip v1 signature : 3DF3707C
    AccurateRip v2 signature : CB781000
        ->Track not present in AccurateRip database.
    Statistics
        Read error                           : 0
        Jitter error (maybe fixed)           : 0
        Retry sector count                   : 0
        Damaged sector count                 : 0

Track 03
    Filename : /Users/BK/Music/Grabbed/Billy Bang's Survival Ensemble/F 1978 - New York Collage/02/03 - Illlustration.flac
    Pre-gap length : 00:03:00

    Track gain               : -4.01 dB
    Peak                     : 0.966003
    CRC32 hash (test run)    : 5AEB1A4D
    CRC32 hash               : 5AEB1A4D
    CRC32 hash (skip zero)   : F81D3693
    AccurateRip v1 signature : FE0E5A42
    AccurateRip v2 signature : B3EDC53A
        ->Track not present in AccurateRip database.
    Statistics
        Read error                           : 0
        Jitter error (maybe fixed)           : 0
        Retry sector count                   : 0
        Damaged sector count                 : 0

Track 04
    Filename : /Users/BK/Music/Grabbed/Billy Bang's Survival Ensemble/F 1978 - New York Collage/02/04 - Subhanallah.flac
    Pre-gap length : 00:03:00

    Track gain               : -2.44 dB
    Peak                     : 0.966003
    CRC32 hash (test run)    : 1284DC8E
    CRC32 hash               : 1284DC8E
    CRC32 hash (skip zero)   : BD3735DB
    AccurateRip v1 signature : C625D848
    AccurateRip v2 signature : BC8FC653
        ->Track not present in AccurateRip database.
    Statistics
        Read error                           : 0
        Jitter error (maybe fixed)           : 0
        Retry sector count                   : 0
        Damaged sector count                 : 0

No errors occurred

End of status report

-----BEGIN XLD SIGNATURE-----
41igBbaQhAEC9ci770A6hgK.Y8SnNe4srMcLOL_Pxj.5ioqHv8zhsBM3hsf2QbB_QLkSaEbCR_6oVfqBLjHSdCRKobbVOlXJhYLN7aK
-----END XLD SIGNATURE-----
Содержание индексной карты (.CUE)
CD1
TITLE "Black Man's Blues"
PERFORMER "Billy Bang's Survival Ensemble"
REM GENRE "Free Jazz"
REM DATE "1977"
REM DISCNUMBER 1
REM TOTALDISCS 2
REM DISCID 23110304
REM REPLAYGAIN_ALBUM_GAIN -4.13 dB
REM REPLAYGAIN_ALBUM_PEAK 0.966248
FILE "01 - Spoken Introduction.flac" WAVE
  TRACK 01 AUDIO
    TITLE "Spoken Introduction"
    PERFORMER "Billy Bang's Survival Ensemble"
    REM COMMENT "Recorded 29th May 1977 at A Day in Solidarity with Soweto: A Fund Raiser, Harlem Fight-Back, 1 East 125th St., New York"
    REM REPLAYGAIN_TRACK_GAIN -0.33 dB
    REM REPLAYGAIN_TRACK_PEAK 0.883179
    INDEX 01 00:00:00
  TRACK 02 AUDIO
    TITLE "Albert Ayler + Know Your Enemy"
    PERFORMER "Billy Bang's Survival Ensemble"
    REM COMMENT "Recorded 29th May 1977 at A Day in Solidarity with Soweto: A Fund Raiser, Harlem Fight-Back, 1 East 125th St., New York"
    REM REPLAYGAIN_TRACK_GAIN -4.23 dB
    REM REPLAYGAIN_TRACK_PEAK 0.966187
    INDEX 00 01:07:00
FILE "02 - Albert Ayler & Know Your Enemy.flac" WAVE
    INDEX 01 00:00:00
  TRACK 03 AUDIO
    TITLE "Ganges + Enchantment + Tapestry"
    PERFORMER "Billy Bang's Survival Ensemble"
    REM COMMENT "Recorded 29th May 1977 at A Day in Solidarity with Soweto: A Fund Raiser, Harlem Fight-Back, 1 East 125th St., New York"
    REM REPLAYGAIN_TRACK_GAIN -3.80 dB
    REM REPLAYGAIN_TRACK_PEAK 0.966217
    INDEX 00 19:26:23
FILE "03 - Ganges & Enchantment & Tapestry.flac" WAVE
    INDEX 01 00:00:00
FILE "04 - Black Man's Blues.flac" WAVE
  TRACK 04 AUDIO
    TITLE "Black Man's Blues"
    PERFORMER "Billy Bang's Survival Ensemble"
    REM COMMENT "Recorded 29th May 1977 at A Day in Solidarity with Soweto: A Fund Raiser, Harlem Fight-Back, 1 East 125th St., New York"
    REM REPLAYGAIN_TRACK_GAIN -4.51 dB
    REM REPLAYGAIN_TRACK_PEAK 0.966248
    INDEX 01 00:00:00

CD2
TITLE "New York Collage"
PERFORMER "Billy Bang's Survival Ensemble"
REM GENRE "Free Jazz"
REM DATE "1978"
REM DISCNUMBER 2
REM TOTALDISCS 2
REM DISCID 280A7404
REM REPLAYGAIN_ALBUM_GAIN -2.96 dB
REM REPLAYGAIN_ALBUM_PEAK 0.966034
FILE "01 - Nobody Hear The Music The Same Way (Dedicated To John Coltrane).flac" WAVE
  TRACK 01 AUDIO
    TITLE "Nobody Hear The Music The Same Way (Dedicated To John Coltrane)"
    PERFORMER "Billy Bang's Survival Ensemble"
    REM COMMENT "Recorded live at Columbia University Radio WKCR 89.9 FM 16th May, 1978  Originally released on ANIMA/RECORDS in 1978 "
    REM REPLAYGAIN_TRACK_GAIN -3.29 dB
    REM REPLAYGAIN_TRACK_PEAK 0.966034
    INDEX 01 00:00:00
  TRACK 02 AUDIO
    TITLE "For Josie Part II"
    PERFORMER "Billy Bang's Survival Ensemble"
    REM COMMENT "Recorded live at Columbia University Radio WKCR 89.9 FM 16th May, 1978  Originally released on ANIMA/RECORDS in 1978 "
    REM REPLAYGAIN_TRACK_GAIN -2.73 dB
    REM REPLAYGAIN_TRACK_PEAK 0.965973
    INDEX 00 12:08:28
FILE "02 - For Josie Part II.flac" WAVE
    INDEX 01 00:00:00
  TRACK 03 AUDIO
    TITLE "Illlustration"
    PERFORMER "Billy Bang's Survival Ensemble"
    REM COMMENT "Recorded live at Columbia University Radio WKCR 89.9 FM 16th May, 1978  Originally released on ANIMA/RECORDS in 1978 "
    REM REPLAYGAIN_TRACK_GAIN -4.01 dB
    REM REPLAYGAIN_TRACK_PEAK 0.966003
    INDEX 00 09:50:10
FILE "03 - Illlustration.flac" WAVE
    INDEX 01 00:00:00
  TRACK 04 AUDIO
    TITLE "Subhanallah"
    PERFORMER "Billy Bang's Survival Ensemble"
    REM COMMENT "Recorded live at Columbia University Radio WKCR 89.9 FM 16th May, 1978  Originally released on ANIMA/RECORDS in 1978 "
    REM REPLAYGAIN_TRACK_GAIN -2.44 dB
    REM REPLAYGAIN_TRACK_PEAK 0.966003
    INDEX 00 08:12:49
FILE "04 - Subhanallah.flac" WAVE
    INDEX 01 00:00:00
16:18
612
Нет комментариев. Ваш будет первым!