Поиск

1991 Matz Nilsson & Hawk On Flight - Wind From The Sea {Public Road PRCD 191} [CD]

1991 Matz Nilsson & Hawk On Flight - Wind From The Sea {Public Road PRCD 191} [CD]

01.- Wheel of 4 tunes - 4:34
02.- Go go for it - 4:34
03.- The happy banana - 5:22
04.- Last night - 4:22
05.- While the city sleeps - 3:40
06.- Wind from the sea - 5:11
07.- Who looks stupid now - 4:21
08.- Did yo mama teach ya that - 5:12
09.- What s wrong with a kiss - 4:10
10.- Ten cents a dance - 4:53

 

Состав:
  • Arranged By – Hawk On Flight, Matz Nilsson
  • Bass – Matz Nilsson
  • Co-producer – Olle Junholm
  • Drums – Christer Sjöström
  • Engineer – Olle Junholm, Åke Linton
  • Guitar – Göran Klinghagen
  • Guitar Synthesizer – Göran Klinghagen
  • Keyboards – Frederik Adlers
  • Mastered By – Peter Dahl
  • Percussion – Niklas Hedin
  • Producer – Matz Nilsson
  • Tenor Saxophone – Ove Ingemarsson
  • Vocals – Tommy Körberg (tracks: A1)

Жанр: Jazz,Fusion
Носитель: CD
Страна-производитель диска (релиза): Sweden
Год издания: 1991
Издатель (лейбл): Public Road Records
Номер по каталогу: PRCD 191
Страна исполнителя (группы): Sweden
Аудиокодек: FLAC (*.flac)
Тип рипа: tracks+.cue
Битрейт аудио: lossless
Продолжительность: 00:46:19
Источник: собственный рип
Наличие сканов в содержимом раздачи: да

Лог создания рипа
Exact Audio Copy V1.3 from 2. September 2016

Отчёт EAC об извлечении, выполненном 26. января 2019, 17:05

Matz Nilsson & Hawk on flight / Wind from the sea

Дисковод: ASUS    DRW-24B3ST   Adapter: 1  ID: 0

Режим чтения                 : Достоверность
Использование точного потока : Да
Отключение кэша аудио        : Да
Использование указателей C2  : Нет

Коррекция смещения при чтении                     : 6
Способность читать области Lead-in и Lead-out     : Нет
Заполнение пропущенных сэмплов тишиной            : Да
Удаление блоков с тишиной в начале и конце        : Нет
При вычислениях CRC использовались нулевые сэмплы : Да
Интерфейс                                         : Встроенный Win32-интерфейс для Win NT/2000
Обработка зазоров                                 : Добавлено к предыдущему треку

Выходной формат          : Пользовательский кодировщик
Выбранный битрейт        : 1024 kBit/s
Качество                 : Высокий
Добавление ID3-тега      : Нет
Утилита сжатия           : C:\Program Files (x86)\Exact Audio Copy\Flac\flac.exe
Дополнительные параметры : -V -8 -T "Genre=%genre%" -T "Artist=%artist%" -T "Title=%title%" -T "Album=%albumtitle%" -T "Date=%year%" -T "Tracknumber=%tracknr%" -T "Comment=%comment%" %source%

TOC извлечённого CD

     Трек |   Старт  | Длительность | Начальный сектор | Конечный сектор
    ---------------------------------------------------------------------
       1  |  0:00.00 |    4:34.07   |           0      |      20556
       2  |  4:34.07 |    4:34.35   |       20557      |      41141
       3  |  9:08.42 |    5:21.73   |       41142      |      65289
       4  | 14:30.40 |    4:21.42   |       65290      |      84906
       5  | 18:52.07 |    3:40.13   |       84907      |     101419
       6  | 22:32.20 |    5:11.17   |      101420      |     124761
       7  | 27:43.37 |    4:20.43   |      124762      |     144304
       8  | 32:04.05 |    5:12.35   |      144305      |     167739
       9  | 37:16.40 |    4:09.50   |      167740      |     186464
      10  | 41:26.15 |    4:53.22   |      186465      |     208461

Трек  1

     Имя файла C:\Users\Сергей\Documents\EAC\01. Wheel of 4 tunes.wav

     Длина предзазора  0:00:02.00

     Пиковый уровень 100.0 %
     Скорость извлечения 3.4 X
     Качество трека 100.0 %
     CRC теста 43F924A8
     CRC копии 43F924A8
     Точное извлечение (достоверность 2)  [064573A4]  (AR v2)
     Копирование... OK

Трек  2

     Имя файла C:\Users\Сергей\Documents\EAC\02. Go go for it.wav

     Длина предзазора  0:00:01.45

     Пиковый уровень 100.0 %
     Скорость извлечения 3.9 X
     Качество трека 100.0 %
     CRC теста 687DA28C
     CRC копии 687DA28C
     Точное извлечение (достоверность 2)  [4E6CEABE]  (AR v2)
     Копирование... OK

Трек  3

     Имя файла C:\Users\Сергей\Documents\EAC\03. The happy banana.wav

     Длина предзазора  0:00:00.52

     Пиковый уровень 100.0 %
     Скорость извлечения 4.3 X
     Качество трека 100.0 %
     CRC теста C8FBDB2A
     CRC копии C8FBDB2A
     Точное извлечение (достоверность 2)  [B953743A]  (AR v2)
     Копирование... OK

Трек  4

     Имя файла C:\Users\Сергей\Documents\EAC\04. Last night.wav

     Длина предзазора  0:00:01.63

     Пиковый уровень 100.0 %
     Скорость извлечения 4.6 X
     Качество трека 100.0 %
     CRC теста 04100EE7
     CRC копии 04100EE7
     Точное извлечение (достоверность 2)  [F3E83188]  (AR v2)
     Копирование... OK

Трек  5

     Имя файла C:\Users\Сергей\Documents\EAC\05. While the city sleeps.wav

     Длина предзазора  0:00:01.52

     Пиковый уровень 100.0 %
     Скорость извлечения 4.7 X
     Качество трека 100.0 %
     CRC теста C1CCE983
     CRC копии C1CCE983
     Точное извлечение (достоверность 2)  [32EE5B24]  (AR v2)
     Копирование... OK

Трек  6

     Имя файла C:\Users\Сергей\Documents\EAC\06. Wind from the sea.wav

     Длина предзазора  0:00:00.73

     Пиковый уровень 100.0 %
     Скорость извлечения 5.3 X
     Качество трека 100.0 %
     CRC теста 1EA815F5
     CRC копии 1EA815F5
     Точное извлечение (достоверность 2)  [9DF193DB]  (AR v2)
     Копирование... OK

Трек  7

     Имя файла C:\Users\Сергей\Documents\EAC\07. Who looks stupid now.wav

     Длина предзазора  0:00:00.40

     Пиковый уровень 100.0 %
     Скорость извлечения 4.3 X
     Качество трека 99.9 %
     CRC теста 718A12C1
     CRC копии 718A12C1
     Точное извлечение (достоверность 2)  [BBDDE844]  (AR v2)
     Копирование... OK

Трек  8

     Имя файла C:\Users\Сергей\Documents\EAC\08. Did yo mama teach ya that.wav

     Длина предзазора  0:00:01.20

     Пиковый уровень 100.0 %
     Скорость извлечения 5.8 X
     Качество трека 100.0 %
     CRC теста B816E80F
     CRC копии B816E80F
     Точное извлечение (достоверность 2)  [83CE6038]  (AR v2)
     Копирование... OK

Трек  9

     Имя файла C:\Users\Сергей\Documents\EAC\09. What s wrong with a kiss.wav

     Длина предзазора  0:00:00.70

     Пиковый уровень 100.0 %
     Скорость извлечения 4.7 X
     Качество трека 99.9 %
     CRC теста 9E4453AC
     CRC копии 9E4453AC
     Точное извлечение (достоверность 2)  [70C34EAD]  (AR v2)
     Копирование... OK

Трек 10

     Имя файла C:\Users\Сергей\Documents\EAC\10. Ten cents a dance.wav

     Длина предзазора  0:00:00.68

     Пиковый уровень 100.0 %
     Скорость извлечения 6.2 X
     Качество трека 100.0 %
     CRC теста 80D209CA
     CRC копии 80D209CA
     Точное извлечение (достоверность 2)  [77500EF0]  (AR v2)
     Копирование... OK

Все треки извлечены точно

Ошибок не произошло

Конец отчёта

==== Контрольная сумма отчёта 53CBEFA25D790059DB0A95EF86229674AAB61E6E4A830F2B5E70EB4F40E41EBB ====
Содержание индексной карты (.CUE)
REM GENRE Jazz
REM DATE 1991
REM DISCID 8B0ADB0A
REM COMMENT "ExactAudioCopy v1.3"
CATALOG 0000000000000
PERFORMER "Matz Nilsson & Hawk on flight"
TITLE "Wind from the sea"
REM COMPOSER ""
FILE "01. Wheel of 4 tunes.wav" WAVE
  TRACK 01 AUDIO
    TITLE "Wheel of 4 tunes"
    PERFORMER "Matz Nilsson & Hawk on flight"
    REM COMPOSER ""
    INDEX 01 00:00:00
  TRACK 02 AUDIO
    TITLE "Go go for it"
    PERFORMER "Matz Nilsson & Hawk on flight"
    REM COMPOSER ""
    INDEX 00 04:32:37
FILE "02. Go go for it.wav" WAVE
    INDEX 01 00:00:00
  TRACK 03 AUDIO
    TITLE "The happy banana"
    PERFORMER "Matz Nilsson & Hawk on flight"
    REM COMPOSER ""
    INDEX 00 04:33:58
FILE "03. The happy banana.wav" WAVE
    INDEX 01 00:00:00
  TRACK 04 AUDIO
    TITLE "Last night"
    PERFORMER "Matz Nilsson & Hawk on flight"
    REM COMPOSER ""
    INDEX 00 05:20:10
FILE "04. Last night.wav" WAVE
    INDEX 01 00:00:00
  TRACK 05 AUDIO
    TITLE "While the city sleeps"
    PERFORMER "Matz Nilsson & Hawk on flight"
    REM COMPOSER ""
    INDEX 00 04:19:65
FILE "05. While the city sleeps.wav" WAVE
    INDEX 01 00:00:00
  TRACK 06 AUDIO
    TITLE "Wind from the sea"
    PERFORMER "Matz Nilsson & Hawk on flight"
    REM COMPOSER ""
    INDEX 00 03:39:15
FILE "06. Wind from the sea.wav" WAVE
    INDEX 01 00:00:00
  TRACK 07 AUDIO
    TITLE "Who looks stupid now"
    PERFORMER "Matz Nilsson & Hawk on flight"
    REM COMPOSER ""
    INDEX 00 05:10:52
FILE "07. Who looks stupid now.wav" WAVE
    INDEX 01 00:00:00
  TRACK 08 AUDIO
    TITLE "Did yo mama teach ya that"
    PERFORMER "Matz Nilsson & Hawk on flight"
    REM COMPOSER ""
    INDEX 00 04:19:23
FILE "08. Did yo mama teach ya that.wav" WAVE
    INDEX 01 00:00:00
  TRACK 09 AUDIO
    TITLE "What s wrong with a kiss"
    PERFORMER "Matz Nilsson & Hawk on flight"
    REM COMPOSER ""
    INDEX 00 05:11:40
FILE "09. What s wrong with a kiss.wav" WAVE
    INDEX 01 00:00:00
  TRACK 10 AUDIO
    TITLE "Ten cents a dance"
    PERFORMER "Matz Nilsson & Hawk on flight"
    REM COMPOSER ""
    INDEX 00 04:08:57
FILE "10. Ten cents a dance.wav" WAVE
    INDEX 01 00:00:00
Приватный:
Нет (DHT включён)
Размер:
411.64 Мб (431,637,418 байт) » файлов: 19
Участники:
9 раздают, 0 качают (9 участников всего)
Внешние участники:
1 раздают, 0 качают (1 участников всего) [ Обновить ]
16:16
595
Нет комментариев. Ваш будет первым!