Поиск

1978 Norbert Moslang & Andy Guhl - Deep Voices (1995) {Urthona URTHONA 03} [CD]

1978 Norbert Moslang & Andy Guhl - Deep Voices (1995) {Urthona URTHONA 03} [CD]
Треклист:

01 Die Schnecke Hüpft Durchs Gras 2:12
02 Genau Das 6:23
03 Nächstes Stück 6:56
04 Gut Geschliffen 5:46
05 Deep Voices 3:56
06 Walking Through The Woods 13:18
07 Smoking Half A Brissago 3:57

Жанр: Free Improvisation
Носитель: CD
Страна-производитель диска (релиза): ger
Год издания: 1995 (1978)
Издатель (лейбл): Urthona
Номер по каталогу: URTHONA 03
Страна исполнителя (группы): swiss
Аудиокодек: FLAC (*.flac)
Тип рипа: tracks+.cue
Битрейт аудио: lossless
Продолжительность: 0:42:28
Источник: what.cd
Наличие сканов в содержимом раздачи: да

Лог создания рипа
Exact Audio Copy V1.0 beta 4 from 7. December 2014

EAC extraction logfile from 4. November 2016, 21:38

Norbert Moslang & Andy Guhl / Deep Voices

Used drive  : MATSHITADVD-RAM UJ8D1   Adapter: 1  ID: 0

Read mode               : Secure
Utilize accurate stream : Yes
Defeat audio cache      : Yes
Make use of C2 pointers : No

Read offset correction                      : 6
Overread into Lead-In and Lead-Out          : No
Fill up missing offset samples with silence : Yes
Delete leading and trailing silent blocks   : No
Null samples used in CRC calculations       : Yes
Used interface                              : Native Win32 interface for Win NT & 2000
Gap handling                                : Appended to previous track

Used output format              : User Defined Encoder
Selected bitrate                : 1024 kBit/s
Quality                         : High
Add ID3 tag                     : No
Command line compressor         : C:\Program Files (x86)\Exact Audio Copy\Flac\flac.exe
Additional command line options : -8 -V -T "ARTIST=%artist%" -T "TITLE=%title%" -T "ALBUM=%albumtitle%" -T "DATE=%year%" -T "TRACKNUMBER=%tracknr%" -T "GENRE=%genre%" -T "PERFORMER=%albuminterpret%" -T "COMPOSER=%composer%" %haslyrics%--tag-from-file=LYRICS="%lyricsfile%"%haslyrics% -T "ALBUMARTIST=%albumartist%" -T "DISCNUMBER=%cdnumber%" -T "TOTALDISCS=%totalcds%" -T "TOTALTRACKS=%numtracks%" -T "COMMENT=%comment%" %source% -o %dest%

TOC of the extracted CD

     Track |   Start  |  Length  | Start sector | End sector
    ---------------------------------------------------------
        1  |  0:00.00 |  2:12.32 |         0    |     9931
        2  |  2:12.32 |  6:22.70 |      9932    |    38651
        3  |  8:35.27 |  6:55.48 |     38652    |    69824
        4  | 15:31.00 |  5:45.62 |     69825    |    95761
        5  | 21:16.62 |  3:55.70 |     95762    |   113456
        6  | 25:12.57 | 13:18.25 |    113457    |   173331
        7  | 38:31.07 |  3:56.68 |    173332    |   191099

Track  1

     Filename C:\EAC\01 - Die Schnecke Hupft Durch Das Gras.wav

     Pre-gap length  0:00:02.00

     Peak level 79.3 %
     Extraction speed 1.5 X
     Track quality 100.0 %
     Test CRC 0FA1D933
     Copy CRC 0FA1D933
     Accurately ripped (confidence 1)  [819E7CE9]  (AR v2)
     Copy OK

Track  2

     Filename C:\EAC\02 - Genau Das.wav

     Pre-gap length  0:00:02.56

     Peak level 78.1 %
     Extraction speed 2.0 X
     Track quality 100.0 %
     Test CRC 8294D409
     Copy CRC 8294D409
     Accurately ripped (confidence 1)  [CDA3A778]  (AR v2)
     Copy OK

Track  3

     Filename C:\EAC\03 - Nachstes Stuck.wav

     Pre-gap length  0:00:02.06

     Peak level 97.9 %
     Extraction speed 2.2 X
     Track quality 99.9 %
     Test CRC EE3814A6
     Copy CRC EE3814A6
     Accurately ripped (confidence 1)  [40CC4B80]  (AR v2)
     Copy OK

Track  4

     Filename C:\EAC\04 - Gut Geschliffen.wav

     Pre-gap length  0:00:04.00

     Peak level 47.6 %
     Extraction speed 2.5 X
     Track quality 100.0 %
     Test CRC 6D24AC1A
     Copy CRC 6D24AC1A
     Accurately ripped (confidence 1)  [26E9784D]  (AR v2)
     Copy OK

Track  5

     Filename C:\EAC\05 - Deep Voices.wav

     Pre-gap length  0:00:03.06

     Peak level 75.4 %
     Extraction speed 2.6 X
     Track quality 100.0 %
     Test CRC CAD1FDA4
     Copy CRC CAD1FDA4
     Accurately ripped (confidence 1)  [8AEDF4B7]  (AR v2)
     Copy OK

Track  6

     Filename C:\EAC\06 - Walking Through The Woods.wav

     Pre-gap length  0:00:02.76

     Peak level 81.5 %
     Extraction speed 3.2 X
     Track quality 100.0 %
     Test CRC 88EC5D1A
     Copy CRC 88EC5D1A
     Accurately ripped (confidence 1)  [BE860454]  (AR v2)
     Copy OK

Track  7

     Filename C:\EAC\07 - Smoking Half A Brissago.wav

     Pre-gap length  0:00:06.76

     Peak level 80.9 %
     Extraction speed 3.1 X
     Track quality 100.0 %
     Test CRC 5892545C
     Copy CRC 5892545C
     Accurately ripped (confidence 1)  [C760B731]  (AR v2)
     Copy OK

All tracks accurately ripped

No errors occurred

End of status report

---- CUETools DB Plugin V2.1.4

[CTDB TOCID: y4OQeo2D0d0zRvDQOBFoTBCJs9k-] disk not present in database
Submit result: y4OQeo2D0d0zRvDQOBFoTBCJs9k- has been uploaded

==== Log checksum 9AAF7D899186C777BEDDCB5DAC5016AB1E51D2ACCA0B8FEE3071F269BE0A3A90 ====
Содержание индексной карты (.CUE)
REM GENRE Jazz
REM DATE 1978
REM DISCID 4C09F407
REM COMMENT "ExactAudioCopy v1.0b4"
CATALOG 0000000000000
PERFORMER "Norbert Moslang & Andy Guhl"
TITLE "Deep Voices"
FILE "01 - Die Schnecke Hupft Durch Das Gras.wav" WAVE
  TRACK 01 AUDIO
    TITLE "Die Schnecke Hupft Durch Das Gras"
    PERFORMER "Norbert Moslang & Andy Guhl"
    INDEX 01 00:00:00
  TRACK 02 AUDIO
    TITLE "Genau Das"
    PERFORMER "Norbert Moslang & Andy Guhl"
    INDEX 00 02:09:65
FILE "02 - Genau Das.wav" WAVE
    INDEX 01 00:00:00
  TRACK 03 AUDIO
    TITLE "Nachstes Stuck"
    PERFORMER "Norbert Moslang & Andy Guhl"
    INDEX 00 06:20:65
FILE "03 - Nachstes Stuck.wav" WAVE
    INDEX 01 00:00:00
  TRACK 04 AUDIO
    TITLE "Gut Geschliffen"
    PERFORMER "Norbert Moslang & Andy Guhl"
    INDEX 00 06:51:48
FILE "04 - Gut Geschliffen.wav" WAVE
    INDEX 01 00:00:00
  TRACK 05 AUDIO
    TITLE "Deep Voices"
    PERFORMER "Norbert Moslang & Andy Guhl"
    INDEX 00 05:42:57
FILE "05 - Deep Voices.wav" WAVE
    INDEX 01 00:00:00
  TRACK 06 AUDIO
    TITLE "Walking Through The Woods"
    PERFORMER "Norbert Moslang & Andy Guhl"
    INDEX 00 03:53:13
FILE "06 - Walking Through The Woods.wav" WAVE
    INDEX 01 00:00:00
  TRACK 07 AUDIO
    TITLE "Smoking Half A Brissago"
    PERFORMER "Norbert Moslang & Andy Guhl"
    INDEX 00 13:11:43
FILE "07 - Smoking Half A Brissago.wav" WAVE
    INDEX 01 00:00:00
Download available for power users only.
15:20
466
Нет комментариев. Ваш будет первым!