Поиск

2010 Bassa - Medialuna {Flowfisch FF 0022}

2010 Bassa - Medialuna {Flowfisch FF 0022}
Стили:
Дата издания диска:
2010
Издатель (лейбл):
Номер по каталогу:
FF 0022
Носитель:
CD
Аудиокодек:
FLAC (*.flac)
Тип рипа:
tracks+.cue
Битрейт аудио:
1
Время звучания:
43:22
Релизёр (источник):
thetysos
Треклист:

01. A la Tienne (3:18)
02. Die Komplizin (3:44)
03. Cinderellas Tanz (3:40)
04. Fish Market Incident (4:30)
05. Pedro (4:07)
06. Horizonte de la Luna (4:39)
07. Moon over Mitte (3:24)
08. Dance for the Bewitched (4:29)
09. SunDay Morning (3:37)
10. Wonderland (3:49)
11. Medialuna (4:03)

Лог создания рипа
X Lossless Decoder version 20110417 (131.0)
XLD extraction logfile from 2011-04-24 16:28:16 +0200
Bassa / Medialuna
Used drive : MATSHITA DVD-R UJ-857E (revision ZF1E)
Ripper mode : CDParanoia III 10.2
Disable audio cache : OK for the drive with a cache less than 2750KiB
Make use of C2 pointers : NO
Read offset correction : 102
Max retry count : 100
Gap status : Analyzed, Appended
TOC of the extracted CD Track | Start | Length | Start sector | End sector --------------------------------------------------------- 1 | 00:00:00 | 03:17:69 | 0 | 14843 2 | 03:17:69 | 03:43:67 | 14844 | 31635 3 | 07:01:61 | 03:40:15 | 31636 | 48150 4 | 10:42:01 | 04:29:57 | 48151 | 68382 5 | 15:11:58 | 04:07:24 | 68383 | 86931 6 | 19:19:07 | 04:39:35 | 86932 | 107891 7 | 23:58:42 | 03:24:32 | 107892 | 123223 8 | 27:22:74 | 04:29:15 | 123224 | 143413 9 | 31:52:14 | 03:37:15 | 143414 | 159703 10 | 35:29:29 | 03:49:05 | 159704 | 176883 11 | 39:18:34 | 04:03:05 | 176884 | 195113
AccurateRip Summary Disc not found in AccurateRip DB.
All Tracks Album gain : -8.56 dB Peak : 0.998871 Statistics Read error : 0 Skipped (treated as error) : 0 Edge jitter error (maybe fixed) : 0 Atom jitter error (maybe fixed) : 0 Drift error (maybe fixed) : 0 Dropped bytes error (maybe fixed) : 0 Duplicated bytes error (maybe fixed) : 0
Track 01 Filename : /Users/-/Desktop/Bassa - [2010] - Medialuna/01 - A la Tienne.flac Pre-gap length : 00:02:00 Track gain : -9.16 dB Peak : 0.998871 CRC32 hash (test run) : 0020B6D1 CRC32 hash : 0020B6D1 CRC32 hash (skip zero) : B7E3E50E AccurateRip signature : 09B8B005 ->Track not present in AccurateRip database. Statistics Read error : 0 Skipped (treated as error) : 0 Edge jitter error (maybe fixed) : 0 Atom jitter error (maybe fixed) : 0 Drift error (maybe fixed) : 0 Dropped bytes error (maybe fixed) : 0 Duplicated bytes error (maybe fixed) : 0 Inconsistency in error sectors : 0
Track 02 Filename : /Users/-/Desktop/Bassa - [2010] - Medialuna/02 - Die Komplizin.flac Pre-gap length : 00:01:07 Track gain : -8.52 dB Peak : 0.998871 CRC32 hash (test run) : B5ED1A89 CRC32 hash : B5ED1A89 CRC32 hash (skip zero) : 301BD9DA AccurateRip signature : 13D9B989 ->Track not present in AccurateRip database. Statistics Read error : 0 Skipped (treated as error) : 0 Edge jitter error (maybe fixed) : 0 Atom jitter error (maybe fixed) : 0 Drift error (maybe fixed) : 0 Dropped bytes error (maybe fixed) : 0 Duplicated bytes error (maybe fixed) : 0 Inconsistency in error sectors : 0
Track 03 Filename : /Users/-/Desktop/Bassa - [2010] - Medialuna/03 - Cinderellas Tanz.flac Track gain : -9.83 dB Peak : 0.998871 CRC32 hash (test run) : 4652C3C9 CRC32 hash : 4652C3C9 CRC32 hash (skip zero) : 267A7CD2 AccurateRip signature : F4926CA0 ->Track not present in AccurateRip database. Statistics Read error : 0 Skipped (treated as error) : 0 Edge jitter error (maybe fixed) : 0 Atom jitter error (maybe fixed) : 0 Drift error (maybe fixed) : 0 Dropped bytes error (maybe fixed) : 0 Duplicated bytes error (maybe fixed) : 0 Inconsistency in error sectors : 0
Track 04 Filename : /Users/-/Desktop/Bassa - [2010] - Medialuna/04 - Fish Market Incident.flac Track gain : -8.16 dB Peak : 0.998871 CRC32 hash (test run) : 94F7A55E CRC32 hash : 94F7A55E CRC32 hash (skip zero) : 0529A549 AccurateRip signature : CECE1037 ->Track not present in AccurateRip database. Statistics Read error : 0 Skipped (treated as error) : 0 Edge jitter error (maybe fixed) : 0 Atom jitter error (maybe fixed) : 0 Drift error (maybe fixed) : 0 Dropped bytes error (maybe fixed) : 0 Duplicated bytes error (maybe fixed) : 0 Inconsistency in error sectors : 0
Track 05 Filename : /Users/-/Desktop/Bassa - [2010] - Medialuna/05 - Pedro.flac Pre-gap length : 00:00:49 Track gain : -9.16 dB Peak : 0.998871 CRC32 hash (test run) : D079F6A2 CRC32 hash : D079F6A2 CRC32 hash (skip zero) : C2944CA6 AccurateRip signature : DD07967D ->Track not present in AccurateRip database. Statistics Read error : 0 Skipped (treated as error) : 0 Edge jitter error (maybe fixed) : 0 Atom jitter error (maybe fixed) : 0 Drift error (maybe fixed) : 0 Dropped bytes error (maybe fixed) : 0 Duplicated bytes error (maybe fixed) : 0 Inconsistency in error sectors : 0
Track 06 Filename : /Users/-/Desktop/Bassa - [2010] - Medialuna/06 - Horizonte de la Luna.flac Track gain : -8.59 dB Peak : 0.998871 CRC32 hash (test run) : 09349581 CRC32 hash : 09349581 CRC32 hash (skip zero) : A322481C AccurateRip signature : C4E5BDE0 ->Track not present in AccurateRip database. Statistics Read error : 0 Skipped (treated as error) : 0 Edge jitter error (maybe fixed) : 0 Atom jitter error (maybe fixed) : 0 Drift error (maybe fixed) : 0 Dropped bytes error (maybe fixed) : 0 Duplicated bytes error (maybe fixed) : 0 Inconsistency in error sectors : 0
Track 07 Filename : /Users/-/Desktop/Bassa - [2010] - Medialuna/07 - Moon over Mitte.flac Track gain : -5.64 dB Peak : 0.998871 CRC32 hash (test run) : 2CF86AFC CRC32 hash : 2CF86AFC CRC32 hash (skip zero) : B6D183E5 AccurateRip signature : 110B5792 ->Track not present in AccurateRip database. Statistics Read error : 0 Skipped (treated as error) : 0 Edge jitter error (maybe fixed) : 0 Atom jitter error (maybe fixed) : 0 Drift error (maybe fixed) : 0 Dropped bytes error (maybe fixed) : 0 Duplicated bytes error (maybe fixed) : 0 Inconsistency in error sectors : 0
Track 08 Filename : /Users/-/Desktop/Bassa - [2010] - Medialuna/08 - Dance for the Bewitched.flac Pre-gap length : 00:01:40 Track gain : -8.14 dB Peak : 0.998871 CRC32 hash (test run) : CFFDB6AC CRC32 hash : CFFDB6AC CRC32 hash (skip zero) : 4C4270A3 AccurateRip signature : 4EA32EE5 ->Track not present in AccurateRip database. Statistics Read error : 0 Skipped (treated as error) : 0 Edge jitter error (maybe fixed) : 0 Atom jitter error (maybe fixed) : 0 Drift error (maybe fixed) : 0 Dropped bytes error (maybe fixed) : 0 Duplicated bytes error (maybe fixed) : 0 Inconsistency in error sectors : 0
Track 09 Filename : /Users/-/Desktop/Bassa - [2010] - Medialuna/09 - SunDay Morning.flac Pre-gap length : 00:01:47 Track gain : -6.95 dB Peak : 0.998871 CRC32 hash (test run) : EC1F0084 CRC32 hash : EC1F0084 CRC32 hash (skip zero) : 7EFD3C31 AccurateRip signature : 6571CF0F ->Track not present in AccurateRip database. Statistics Read error : 0 Skipped (treated as error) : 0 Edge jitter error (maybe fixed) : 0 Atom jitter error (maybe fixed) : 0 Drift error (maybe fixed) : 0 Dropped bytes error (maybe fixed) : 0 Duplicated bytes error (maybe fixed) : 0 Inconsistency in error sectors : 0
Track 10 Filename : /Users/-/Desktop/Bassa - [2010] - Medialuna/10 - Wonderland.flac Pre-gap length : 00:01:42 Track gain : -7.65 dB Peak : 0.998871 CRC32 hash (test run) : C1D3BEE9 CRC32 hash : C1D3BEE9 CRC32 hash (skip zero) : C0F7BE31 AccurateRip signature : E2E09EA7 ->Track not present in AccurateRip database. Statistics Read error : 0 Skipped (treated as error) : 0 Edge jitter error (maybe fixed) : 0 Atom jitter error (maybe fixed) : 0 Drift error (maybe fixed) : 0 Dropped bytes error (maybe fixed) : 0 Duplicated bytes error (maybe fixed) : 0 Inconsistency in error sectors : 0
Track 11 Filename : /Users/-/Desktop/Bassa - [2010] - Medialuna/11 - Medialuna.flac Pre-gap length : 00:01:66 Track gain : -8.60 dB Peak : 0.998871 CRC32 hash (test run) : B4DF671D CRC32 hash : B4DF671D CRC32 hash (skip zero) : 77688B74 AccurateRip signature : 2D2CF241 ->Track not present in AccurateRip database. Statistics Read error : 0 Skipped (treated as error) : 0 Edge jitter error (maybe fixed) : 0 Atom jitter error (maybe fixed) : 0 Drift error (maybe fixed) : 0 Dropped bytes error (maybe fixed) : 0 Duplicated bytes error (maybe fixed) : 0 Inconsistency in error sectors : 0
No errors occurred
End of status report
Содержание индексной карты (.CUE)
TITLE "Medialuna"
PERFORMER "Bassa"
REM GENRE "Tango"
REM DATE "2010"
REM DISCID 7B0A290B
FILE "01 - A la Tienne.flac" WAVE TRACK 01 AUDIO ISRC DEKQ81000169 INDEX 01 00:00:00 TRACK 02 AUDIO ISRC DEKQ81000170 INDEX 00 03:16:62
FILE "02 - Die Komplizin.flac" WAVE INDEX 01 00:00:00
FILE "03 - Cinderellas Tanz.flac" WAVE TRACK 03 AUDIO ISRC DEKQ81000171 INDEX 01 00:00:00
FILE "04 - Fish Market Incident.flac" WAVE TRACK 04 AUDIO ISRC DEKQ81000172 INDEX 01 00:00:00 TRACK 05 AUDIO ISRC DEKQ81000173 INDEX 00 04:29:08
FILE "05 - Pedro.flac" WAVE INDEX 01 00:00:00
FILE "06 - Horizonte de la Luna.flac" WAVE TRACK 06 AUDIO ISRC DEKQ81000174 INDEX 01 00:00:00
FILE "07 - Moon over Mitte.flac" WAVE TRACK 07 AUDIO ISRC DEKQ81000175 INDEX 01 00:00:00 TRACK 08 AUDIO ISRC DEKQ81000176 INDEX 00 03:22:67
FILE "08 - Dance for the Bewitched.flac" WAVE INDEX 01 00:00:00 TRACK 09 AUDIO ISRC DEKQ81000177 INDEX 00 04:27:43
FILE "09 - SunDay Morning.flac" WAVE INDEX 01 00:00:00 TRACK 10 AUDIO ISRC DEKQ81000178 INDEX 00 03:35:48
FILE "10 - Wonderland.flac" WAVE INDEX 01 00:00:00 TRACK 11 AUDIO ISRC DEKQ81000179 INDEX 00 03:47:14
FILE "11 - Medialuna.flac" WAVE INDEX 01 00:00:00
Лог проверки качества
-----------------------
DON'T MODIFY THIS FILE
-----------------------
PERFORMER: auCDtect Task Manager, ver. 1.5.1RC3 build 1.5.1.4
Copyright (c) 2008-2010 y-soft. All rights reserved
http://y-soft.org
ANALYZER: auCDtect: CD records authenticity detector, version 0.8.2
Copyright (c) 2004 Oleg Berngardt. All rights reserved.
Copyright (c) 2004 Alexander Djourik. All rights reserved.
FILE: 11 - Medialuna.flac Size: 24639054 Hash: 5CA8F17665F207CDD7F862D498C9317E Accuracy: -m0 Conclusion: CDDA 99% Signature: 7DAE93306BE5B8917CCA120B854D205284F8D794
FILE: 10 - Wonderland.flac Size: 24362957 Hash: 7392BA265A71CDE8F0D273E14DFCBE07 Accuracy: -m0 Conclusion: CDDA 100% Signature: 22E77B6D979536E07314AADEC02F7207514D4EBA
FILE: 09 - SunDay Morning.flac Size: 22258763 Hash: 2DDE4C8B0DE5DAC8C25AE80D0A76FA8B Accuracy: -m0 Conclusion: CDDA 100% Signature: 5033A695C03FE311910DEE0BD3C9B3D069F165DC
FILE: 08 - Dance for the Bewitched.flac Size: 27758285 Hash: 4E50C001ABCC6AE95ABB3D6652C8E832 Accuracy: -m0 Conclusion: CDDA 100% Signature: 75261C5AE6DE1286C8CF3A353A7531B4C8AD27CE
FILE: 07 - Moon over Mitte.flac Size: 19529853 Hash: 7459ABB9A705408F0A360F087AF878FC Accuracy: -m0 Conclusion: CDDA 100% Signature: 256DEBCD99166DBCD12A7254DD285E17206758F1
FILE: 06 - Horizonte de la Luna.flac Size: 27562543 Hash: 23041FB9DA605E8E256D80F02D1E53D4 Accuracy: -m0 Conclusion: CDDA 100% Signature: 44D4294CF257E66CE54783BB882256CC351882EF
FILE: 05 - Pedro.flac Size: 25007354 Hash: 92DB877B43E42B4A0DBD4529369A0380 Accuracy: -m0 Conclusion: CDDA 100% Signature: D0F5D8A4441525CE118781784178071D782B1E11
FILE: 04 - Fish Market Incident.flac Size: 27816329 Hash: 83E6EEC8DD7332766A106EA6880F1795 Accuracy: -m0 Conclusion: CDDA 100% Signature: 5C6CE19F8070BF509510F7B437FDE69D707CF5D0
FILE: 03 - Cinderellas Tanz.flac Size: 24217418 Hash: B1EEC73A0B6C68F33B09951E7A809B72 Accuracy: -m0 Conclusion: CDDA 100% Signature: 83899A0BFFE8A067D0A964892BA509D1047DCC68
FILE: 02 - Die Komplizin.flac Size: 24456275 Hash: 9EE2DA2C1D1ED1C2138E517B75BE52B8 Accuracy: -m0 Conclusion: CDDA 100% Signature: 271A5B6C3735DEA8F972B7F3C981B047FF69084C
FILE: 01 - A la Tienne.flac Size: 20644450 Hash: E3B8B003199DF15F73309CC6FE02F25D Accuracy: -m0 Conclusion: CDDA 100% Signature: 1EDA2787405A1A9BC0AA541BC2CE95270F4167AC
Скачивание доступно после регистрации!!
Приватный:
Нет (DHT включён)
Размер:
256.21 Мб (268,654,444 байт) » файлов: 17
Участники:
0 раздают, 0 качают (0 участников всего)
Внешние участники:
2 раздают, 1 качают (3 участников всего) [ Обновить ]
21:04
219
Нет комментариев. Ваш будет первым!