Поиск

2005 Miles Davis - Poetics of Sound 1954-1959 {Sony BMG LMM-297}

2005 Miles Davis - Poetics of Sound 1954-1959 {Sony BMG LMM-297}
Страна-производитель диска (релиза):
USA
Дата записи диска:
1954-1959
Дата издания диска:
2005
Издатель (лейбл):
Номер по каталогу:
LMM-297
Носитель:
CD
Битрейт аудио:
lossless
Аудиокодек:
FLAC (*.flac)
Тип рипа:
image+.cue
Время звучания:
01:15:48
Наличие сканов:
  • да
Релизёр (источник):
avaxhome

01 Solar
02 It Never Entered My Mind
03 Bags' Groove
04 When I Fall in Love
05 Dear Old Stockholm
06 Bye Bye Blackbird
07 Milestones
08 It Ain't Necessarily So
09 So What
10 Concierto De Aranjuez

Лог создания рипа
Exact Audio Copy V0.99 prebeta 5 from 4. May 2009
EAC extraction logfile from 23. April 2011, 14:12
Miles Davis / Poetics of Sound 1954-1959 {SONY-BMG}
Used drive : ASUS DRW-1608P3S Adapter: 0 ID: 1
Read mode : Secure
Utilize accurate stream : Yes
Defeat audio cache : Yes
Make use of C2 pointers : No
Read offset correction : 48
Overread into Lead-In and Lead-Out : No
Fill up missing offset samples with silence : Yes
Delete leading and trailing silent blocks : No
Null samples used in CRC calculations : Yes
Used interface : Native Win32 interface for Win NT & 2000
Used output format : Internal WAV Routines
Sample format : 44.100 Hz; 16 Bit; Stereo
TOC of the extracted CD Track | Start | Length | Start sector | End sector --------------------------------------------------------- 1 | 0:00.00 | 4:45.04 | 0 | 21378 2 | 4:45.04 | 5:24.26 | 21379 | 45704 3 | 10:09.30 | 9:26.03 | 45705 | 88157 4 | 19:35.33 | 4:23.68 | 88158 | 107950 5 | 23:59.26 | 7:52.33 | 107951 | 143383 6 | 31:51.59 | 7:57.25 | 143384 | 179183 7 | 39:49.09 | 5:45.47 | 179184 | 205105 8 | 45:34.56 | 4:27.18 | 205106 | 225148 9 | 50:01.74 | 9:23.00 | 225149 | 267373 10 | 59:24.74 | 16:23.10 | 267374 | 341108
Range status and errors
Selected range Filename H:\Miles Davis - Poetics of Sound 1954-1959 {SONY-BMG}.wav Peak level 100.0 % Range quality 100.0 % Test CRC 41B5ABC0 Copy CRC 41B5ABC0 Copy OK
No errors occurred
AccurateRip summary
Track 1 accurately ripped (confidence 8) [23672D37]
Track 2 accurately ripped (confidence 8) [045589DC]
Track 3 accurately ripped (confidence 8) [5B6F603F]
Track 4 accurately ripped (confidence 8) [053E318E]
Track 5 accurately ripped (confidence 8) [F3193407]
Track 6 accurately ripped (confidence 8) [0FB2F7A9]
Track 7 accurately ripped (confidence 9) [AD81E7AE]
Track 8 accurately ripped (confidence 10) [45612741]
Track 9 accurately ripped (confidence 9) [B459FB9C]
Track 10 accurately ripped (confidence 7) [8410A7A1]
All tracks accurately ripped
End of status report
Содержание индексной карты (.CUE)
REM GENRE Jazz
REM DATE 2005
REM DISCID 7E11C40A
REM COMMENT "ExactAudioCopy v0.99pb5"
PERFORMER "Miles Davis"
TITLE "Poetics of Sound 1954-1959 {SONY-BMG}"
FILE "Miles Davis - Poetics of Sound 1954-1959.flac" WAVE TRACK 01 AUDIO TITLE "Solar" PERFORMER "Miles Davis" INDEX 01 00:00:00 TRACK 02 AUDIO TITLE "It Never Entered My Mind" PERFORMER "Miles Davis" INDEX 00 04:43:04 INDEX 01 04:45:04 TRACK 03 AUDIO TITLE "Bags' Groove" PERFORMER "Miles Davis" INDEX 00 10:07:30 INDEX 01 10:09:30 TRACK 04 AUDIO TITLE "When I Fall in Love" PERFORMER "Miles Davis" INDEX 00 19:32:33 INDEX 01 19:35:33 TRACK 05 AUDIO TITLE "Dear Old Stockholm" PERFORMER "Miles Davis" INDEX 00 23:57:26 INDEX 01 23:59:26 TRACK 06 AUDIO TITLE "Bye Bye Blackbird" PERFORMER "Miles Davis" INDEX 00 31:49:59 INDEX 01 31:51:59 TRACK 07 AUDIO TITLE "Milestones" PERFORMER "Miles Davis" INDEX 00 39:47:09 INDEX 01 39:49:09 TRACK 08 AUDIO TITLE "It Ain't Necessarily So" PERFORMER "Miles Davis" INDEX 00 45:32:56 INDEX 01 45:34:56 TRACK 09 AUDIO TITLE "So What" PERFORMER "Miles Davis" INDEX 00 49:59:74 INDEX 01 50:01:74 TRACK 10 AUDIO TITLE "Concierto De Aranjuez" PERFORMER "Miles Davis" INDEX 00 59:23:74 INDEX 01 59:24:74
Скриншот спектра частот
2005 Miles Davis - Poetics of Sound 1954-1959 {Sony BMG LMM-297} 0
Скачивание доступно после регистрации!!
Приватный:
Нет (DHT включён)
Размер:
447.22 Мб (468,938,977 байт) » файлов: 20
Участники:
0 раздают, 0 качают (0 участников всего)
Внешние участники:
2 раздают, 1 качают (3 участников всего) [ Обновить ]
21:38
217
RSS
Нет комментариев. Ваш будет первым!