Поиск

1958, 1959 (2010) Gerry Mulligan - Meets Johnny Hodges & What Is There to Say? (2LP on 1CD) {AJC 99018}

1958, 1959 (2010) Gerry Mulligan - Meets Johnny Hodges & What Is There to Say? (2LP on 1CD) {AJC 99018}
Стили:
Дата записи диска:
17 декабря - 15 января 1958, 17 ноября 1959
Дата издания диска:
2010
Издатель (лейбл):
Номер по каталогу:
99018
Носитель:
CD
Битрейт аудио:
lossless
Аудиокодек:
APE (*.ape)
Тип рипа:
image+.cue
Время звучания:
01:14:35
Наличие сканов:
  • да
Релизёр (источник):
Kud-gena
Состав:
  • Buddy Clark Bass
  • Ken Druker Executive Producer
  • John Snyder Producer
  • Nat Hentoff Liner Notes
  • Johnny Hodges Composer, Sax (Alto)
  • Mel Lewis Drums
  • Gerry Mulligan Composer, Sax (Baritone)
  • Claude Williamson Piano
  • Dave Bailey    Drums
  • John Ephland    Liner Notes
  • Art Farmer    Composer, Trumpet
  • Teo Macero    Original Recording Producer, Producer
  • Gerry Mulligan    Composer, Sax (Baritone)

01. Sunny
02. What's The Rush
03. Back Beat
04. What It's All About
05. 18 Carrots For Rabbit
06. Shady Side
07. What Is There to Say-bonus
08. Just in Time-bonus
09. News from Blueport-bonus
10. Festive Minor-bonus
11. As Catch Can-bonus
12. My Funny Valentine-bonus
13. Blueport-bonus
14. Utter Chaos-bonus

Лог создания рипа
Exact Audio Copy V0.99 prebeta 5 from 4. May 2009
Отчёт EAC об извлечении, выполненном 13. мая 2011, 13:12
Gerry Mulligan / Gerry Mulligan meets Johnny Hodges.What Is There to Say?
Дисковод: SONY DVD RW AW-G170A Adapter: 0 ID: 2
Режим чтения : Достоверность
Использование точного потока : Да
Отключение кэша аудио : Да
Использование указателей C2 : Нет
Коррекция смещения при чтении : 48
Способность читать области Lead-in и Lead-out : Нет
Заполнение пропущенных сэмплов тишиной : Да
Удаление блоков с тишиной в начале и конце : Нет
При вычислениях CRC использовались нулевые сэмплы : Да
Интерфейс : Встроенный Win32-интерфейс для Win NT/2000
Выходной формат : Внутренние WAV-операции
Формат сэмплов : 44.100 Гц; 16 бит; стерео
TOC извлечённого CD Трек | Старт | Длительность | Начальный сектор | Конечный сектор --------------------------------------------------------------------- 1 | 0:00.00 | 5:47.19 | 0 | 26043 2 | 5:47.19 | 3:45.13 | 26044 | 42931 3 | 9:32.32 | 7:28.40 | 42932 | 76571 4 | 17:00.72 | 4:02.64 | 76572 | 94785 5 | 21:03.61 | 5:16.29 | 94786 | 118514 6 | 26:20.15 | 7:04.60 | 118515 | 150374 7 | 33:25.00 | 4:07.70 | 150375 | 168969 8 | 37:32.70 | 4:14.34 | 168970 | 188053 9 | 41:47.29 | 5:07.32 | 188054 | 211110 10 | 46:54.61 | 6:17.26 | 211111 | 239411 11 | 53:12.12 | 3:58.24 | 239412 | 257285 12 | 57:10.36 | 4:10.04 | 257286 | 276039 13 | 61:20.40 | 8:50.49 | 276040 | 315838 14 | 70:11.14 | 4:24.12 | 315839 | 335650
Характеристики диапазона извлечения и сообщения об ошибках
Выбранный диапазон Имя файла D:\dOWNLOADS\audio\Gerry Mulligan.2LPs on 1CD\Gerry Mulligan - Gerry Mulligan meets johnny Hodges.What Is There to Say.wav Пиковый уровень 100.0 % Качество диапазона 100.0 % CRC теста 97191DA9 CRC копии 97191DA9 Копирование... OK
Ошибок не произошло
AccurateRip: сводка
Трек 1 нет в базе данных
Трек 2 нет в базе данных
Трек 3 нет в базе данных
Трек 4 нет в базе данных
Трек 5 нет в базе данных
Трек 6 нет в базе данных
Трек 7 нет в базе данных
Трек 8 нет в базе данных
Трек 9 нет в базе данных
Трек 10 нет в базе данных
Трек 11 нет в базе данных
Трек 12 нет в базе данных
Трек 13 нет в базе данных
Трек 14 нет в базе данных
Ни одного трека нет в базе AccurateRip
Конец отчёта
Приватный:
Нет (DHT включён)
Размер:
500.28 Мб (524,579,922 байт) » файлов: 11
Участники:
0 раздают, 0 качают (0 участников всего)
Внешние участники:
5 раздают, 2 качают (7 участников всего) [ Обновить ]
18:30
80
RSS
Нет комментариев. Ваш будет первым!