Поиск

2009 Ratko Zjaca, John Patitucci, Steve Gadd, Stanislav Mitrovic, Randy Brecker - Continental Talk {In+Out} [24-44.1]

2009 Ratko Zjaca, John Patitucci, Steve Gadd, Stanislav Mitrovic, Randy Brecker - Continental Talk {In+Out} [24-44.1]
Стили:
Место записи:
Avatar Studios, New York City, NY, USA
Издатель (лейбл):
Номер по каталогу:
IOR 77097-2
Носитель:
WEB
Формат:
PCM
Тип рипа:
tracks
Контейнер:
FLAC (*.flac)
Количество каналов:
2.0
Разрядность/ЧД:
24/44,1
Битрейт аудио:
lossless
Время звучания:
01:11:39
Наличие сканов:
только обложка

01 - Breakfast in Tokyo 08:25
02 - The New Life 05:02
03 - Portrait in Retrograde 05:59
04 - Inner Ears 07:10
05 - Kurosawa 06:15
06 - At the Crossroads 02:39
07 - Home Again 04:41
08 - Correspondance 06:20
09 - Feather 05:18
10 - The Gate 07:51
11 - Anibas 04:46
12 - E Doubt 07:13

Состав:
Лог проверки качества
foobar2000 1.4.3 / Dynamic Range Meter 1.1.1
log date: 2021-11-27 02:52:12
--------------------------------------------------------------------------------
Analyzed: Ratko Zjaca / Continental Talk
--------------------------------------------------------------------------------
DR         Peak         RMS     Duration Track
--------------------------------------------------------------------------------
DR8       -1.05 dB   -12.03 dB      8:26 01-Breakfast in Tokyo
DR11      -1.05 dB   -14.81 dB      5:03 02-The New Life
DR11      -1.05 dB   -14.69 dB      6:00 03-Portrait in Retrograde
DR11      -1.05 dB   -14.42 dB      7:11 04-Inner Ears
DR10      -1.05 dB   -12.89 dB      6:15 05-Kurosawa
DR11      -3.80 dB   -18.08 dB      2:39 06-At the Crossroads
DR11      -1.06 dB   -14.56 dB      4:42 07-Home Again
DR9       -1.05 dB   -11.78 dB      6:20 08-Correspondance
DR10      -1.05 dB   -13.78 dB      5:19 09-Feather
DR9       -1.05 dB   -10.83 dB      7:51 10-The Gate
DR11      -1.05 dB   -14.05 dB      4:46 11-Anibas
DR10      -1.05 dB   -11.89 dB      7:14 12-E Doubt
--------------------------------------------------------------------------------
Number of tracks:  12
Official DR value: DR10
Samplerate:        44100 Hz
Channels:          2
Bits per sample:   24
Bitrate:           1641 kbps
Codec:             FLAC
================================================================================
Приватный:
Нет (DHT включён)
Размер:
798.87 Мб (837,671,280 байт) » файлов: 17
Участники:
0 раздают, 0 качают (0 участников всего)
Внешние участники:
9 раздают, 3 качают (12 участников всего) [ Обновить ]
15:20
457
Нет комментариев. Ваш будет первым!