Поиск

2008 Laura Ann & Quatro Na Bossa - Summer Samba (2016) {Venus} [DSD64 ISO]

2008 Laura Ann & Quatro Na Bossa - Summer Samba (2016) {Venus} [DSD64 ISO]
Дата записи диска:
1 сентября - 2 сентября 2007
Место записи:
The Studio, New York City, NY, USA
Дата издания диска:
21 мая 2008
Издатель (лейбл):
Номер по каталогу:
VHGD-143
Носитель:
SACD
Формат:
DSD
Тип рипа:
image
Контейнер:
ISO (*.iso)
Количество каналов:
2.0
Разрядность/ЧД:
64 (2,8 MHz/1 Bit)
Битрейт аудио:
lossless
Время звучания:
00:47:20
Наличие сканов:
только обложка

01. Gentle Rain  04:39
02. Jardim  04:03
03. Dindi  05:04
04. Summer Samba  03:29
05. Desafinado  05:27
06. Eu Sei Que Vou Te Amar  03:09
07. Flor De Lis  03:52
08. Lucidez  04:48
09. De Conversa Em Conversa  04:24
10. Triste  06:02
11. Que Pana  03:05

Состав:
  • Laura Ann — vocal
  • Kevin Harding — guitar
  • Rusty Farmer — bass
  • Adriano Santos — drums
  • Rodrigo Ursaia — sax, flute
Лог проверки качества
foobar2000 1.6.7 / Dynamic Range Meter 1.1.1
log date: 2021-11-27 14:32:26
--------------------------------------------------------------------------------
Analyzed: LAURA ANN & QUATRO NA BOSSA / Summer Samba
--------------------------------------------------------------------------------
DR         Peak         RMS     Duration Track
--------------------------------------------------------------------------------
DR9       -5.36 dB   -15.61 dB      4:35 01-Gentle Rain
DR9       -5.25 dB   -15.83 dB      3:59 02-Jardim
DR9       -5.29 dB   -15.64 dB      5:00 03-Dindi
DR9       -5.03 dB   -15.09 dB      3:25 04-Samba De Verao (Summer Samba)
DR8       -4.96 dB   -14.02 dB      5:23 05-Desafinado
DR10      -5.30 dB   -17.30 dB      3:05 06-Eu Sei Que Vou Te Amar
DR8       -5.14 dB   -14.38 dB      3:48 07-Flor De Lis
DR8       -5.33 dB   -15.02 dB      4:44 08-Lucidez
DR8       -5.07 dB   -14.66 dB      4:20 09-De Conversa Em Conversa
DR9       -5.14 dB   -16.21 dB      5:57 10-Triste
DR8       -5.15 dB   -14.54 dB      3:06 11-Que Pana
--------------------------------------------------------------------------------
Number of tracks:  11
Official DR value: DR9
Samplerate:        2822400 Hz / PCM Samplerate: 88200 Hz
Channels:          2
Bits per sample:   1
Bitrate:           5645 kbps
Codec:             DSD64
================================================================================
Приватный:
Нет (DHT включён)
Размер:
1.94 Гб (2,085,032,806 байт) » файлов: 4
Участники:
0 раздают, 2 качают (2 участников всего)
Внешние участники:
3 раздают, 1 качают (4 участников всего) [ Обновить ]
Скорость:
1.74 Мб/c 0/c
19:19
413
Нет комментариев. Ваш будет первым!