Поиск

2001 Joe Beck Trio - Strangers In The Night (2017) {Venus} [DSD64 ISO]

2001 Joe Beck Trio - Strangers In The Night (2017) {Venus} [DSD64 ISO]
Стили:
Дата записи диска:
14 апреля 1999
Место записи:
The Clinton Recording Studio, NY
Дата издания диска:
18 декабря 2001
Издатель (лейбл):
Номер по каталогу:
VHGD-251
Носитель:
SACD
Формат:
PCM
Тип рипа:
image
Контейнер:
FLAC (*.flac)
Количество каналов:
2.0
Разрядность/ЧД:
64 (2,8 MHz/1 Bit)
Битрейт аудио:
lossless
Время звучания:
01:07:57
Наличие сканов:
только обложка

01. Strangers in the Night  05:02
02. All of Me  06:11
03. I Don't Stand a Ghost of a Chance  05:36
04. I'm a Fool to Want You  04:53
05. Once I Loved  08:46
06. The Girl Next Door  08:30
07. Angel Eyes  07:53
08. Last Night When We Were Young  05:43
09. Black Orpheus  09:33
10. Nancy (With the Laughing Face)  05:50

Состав:
  •     Bass – George Mraz
  •     Drums – Billy Hart
  •     Engineer – Troy Halderson
  •     Guitar – Joe Beck
  •     Producer – Tetsuo Hara, Todd Barkan
Лог проверки качества
foobar2000 1.6.7 / Dynamic Range Meter 1.1.1
log date: 2021-11-15 10:29:06
--------------------------------------------------------------------------------
Analyzed: JOE BECK TRIO / Strangers In The Night
--------------------------------------------------------------------------------
DR         Peak         RMS     Duration Track
--------------------------------------------------------------------------------
DR7       -4.81 dB   -13.90 dB      5:02 01-Strangers In The Night
DR8       -4.27 dB   -14.06 dB      6:11 02-All Of Me
DR8       -4.63 dB   -14.38 dB      5:36 03-I Don't Stand A Ghost Of A Chance
DR8       -4.82 dB   -16.03 dB      4:53 04-I'm A Fool To Want You
DR8       -4.72 dB   -15.05 dB      8:46 05-Once I Loved
DR7       -4.32 dB   -14.28 dB      8:30 06-The Girl Next Door
DR8       -4.76 dB   -15.39 dB      7:53 07-Angel Eyes
DR8       -4.76 dB   -15.91 dB      5:43 08-Last Night When We Were Young
DR6       -4.40 dB   -13.79 dB      9:33 09-Black Orpheus
DR9       -4.96 dB   -17.32 dB      5:50 10-Nancy (With The Laughing Face)
--------------------------------------------------------------------------------
Number of tracks:  10
Official DR value: DR8
Samplerate:        2822400 Hz / PCM Samplerate: 88200 Hz
Channels:          2
Bits per sample:   1
Bitrate:           5645 kbps
Codec:             DSD64
================================================================================
Приватный:
Нет (DHT включён)
Размер:
4.03 Гб (4,330,181,753 байт) » файлов: 19
Участники:
0 раздают, 0 качают (0 участников всего)
Внешние участники:
5 раздают, 2 качают (7 участников всего) [ Обновить ]
10:39
537
Нет комментариев. Ваш будет первым!